<?xml version="1.0" standalone="no"?>
<!DOCTYPE svg PUBLIC "-//W3C//DTD SVG 1.1//EN" "http://www.w3.org/Graphics/SVG/1.1/DTD/svg11.dtd" >
<svg>
<metadata>
Created by FontForge 20120731 at Fri Dec 23 08:24:19 2022
 By fw_worker
Copyright (c) 2016 by Mostardesign Type Foundry. All rights reserved.
</metadata>
<defs>
<font id="UniviaPro-Book" horiz-adv-x="617" >
  <font-face 
    font-family="Univia Pro Book"
    font-weight="350"
    font-stretch="normal"
    units-per-em="1000"
    panose-1="0 0 5 0 0 0 0 0 0 0"
    ascent="800"
    descent="-200"
    x-height="541"
    cap-height="748"
    bbox="-129.048 -267.25 1278 1093"
    underline-thickness="0"
    underline-position="0"
    unicode-range="U+0020-1F603"
  />
<missing-glyph horiz-adv-x="430" 
d="M99 748h461q12 0 12 -12v-723q0 -13 -12 -13h-461q-13 0 -13 13v723q0 12 13 12zM316 625q-71 0 -113 -7q-11 -3 -11 -13v-38q0 -9 9 -9h115q55 0 75.5 -11t20.5 -47v-26q0 -27 -9 -42t-30 -25l-80 -38q-28 -16 -35.5 -28.5t-5.5 -35.5l3 -40q0 -5 6 -5h49q6 0 6 6l1 19
q1 14 6.5 20t26.5 16l68 33q42 19 56.5 43t14.5 75v37q0 75 -53 97q-44 19 -120 19zM241 165q0 -41 44 -41t44 41q0 42 -44 42t-44 -42z" />
    <glyph glyph-name="f_f" unicode="ff" horiz-adv-x="687" 
d="M671 746q11 -2 11 -13v-31q0 -13 -12 -13h-57q-48 0 -66 -9t-22 -47v-92h135q14 0 11 -15l-6 -34q-3 -11 -14 -11h-126v-468q0 -13 -13 -13h-47q-13 0 -13 13v468h-268v-468q0 -13 -13 -13h-47q-12 0 -12 13v468h-75q-13 0 -13 12v35q0 13 13 13h75v106q0 107 135 107
q40 0 85 -8q11 -2 11 -13v-31q0 -13 -12 -13h-59q-48 0 -66 -9t-22 -47v-92h268v106q0 107 136 107q38 0 83 -8z" />
    <glyph glyph-name="fi.001" unicode="fi" horiz-adv-x="573" 
d="M247 754q30 0 76 -8q11 -2 11 -13v-31q0 -13 -13 -13h-49q-48 0 -66 -9t-22 -47v-92h302q12 0 12 -13v-515q0 -13 -12 -13h-47q-13 0 -13 13v468h-242v-468q0 -13 -13 -13h-47q-12 0 -12 13v468h-75q-13 0 -13 12v35q0 13 13 13h75v106q0 107 135 107zM509 694
q0 -48 -47 -48t-47 48q0 46 47 46t47 -46z" />
    <glyph glyph-name="fl" unicode="fl" horiz-adv-x="563" 
d="M475 744q13 0 13 -12v-719q0 -13 -13 -13h-47q-13 0 -13 13v674l-122 2q-56 2 -82.5 -13t-26.5 -55v-80h135q14 0 11 -15l-6 -34q-3 -11 -14 -11h-126v-468q0 -13 -13 -13h-47q-12 0 -12 13v468h-75q-13 0 -13 12v35q0 13 13 13h75v95q0 118 172 118q75 0 191 -10z" />
    <glyph glyph-name="f_f_i" unicode="ffi" horiz-adv-x="914" 
d="M588 754q33 0 78 -8q11 -2 11 -13v-31q0 -13 -13 -13h-51q-48 0 -66 -9t-22 -47v-92h301q13 0 13 -13v-515q0 -13 -13 -13h-47q-12 0 -12 13v468h-242v-468q0 -13 -13 -13h-47q-13 0 -13 13v468h-268v-468q0 -13 -13 -13h-47q-12 0 -12 13v468h-75q-13 0 -13 12v35
q0 13 13 13h75v106q0 107 135 107q42 0 88 -8q11 -2 11 -13v-31q0 -13 -13 -13h-61q-48 0 -66 -9t-22 -47v-92h268v106q0 107 136 107zM850 694q0 -48 -47 -48t-47 48q0 46 47 46t47 -46z" />
    <glyph glyph-name="f_f_l" unicode="ffl" horiz-adv-x="903" 
d="M816 744q12 0 12 -12v-719q0 -13 -12 -13h-47q-13 0 -13 13v674l-122 2q-56 2 -82.5 -13t-26.5 -55v-80h135q14 0 11 -15l-6 -34q-3 -11 -14 -11h-126v-468q0 -13 -13 -13h-47q-13 0 -13 13v468h-268v-468q0 -13 -13 -13h-47q-12 0 -12 13v468h-75q-13 0 -13 12v35
q0 13 13 13h75v106q0 107 135 107q59 0 105 -8q11 -2 11 -13v-31q0 -13 -13 -13h-78q-48 0 -66 -9t-22 -47v-92h268v95q0 118 173 118q75 0 191 -10z" />
    <glyph glyph-name="f_b" unicode="fb" horiz-adv-x="909" 
d="M625 546q112 0 162 -33q27 -16 40 -50q25 -59 25 -192q0 -91 -8.5 -139.5t-32.5 -80.5t-64.5 -44t-114.5 -12q-101 0 -203 16q-14 2 -14 15v661l-122 2q-56 2 -82.5 -13t-26.5 -55v-80h135q14 0 11 -15l-6 -34q-3 -11 -14 -11h-126v-468q0 -13 -13 -13h-47q-12 0 -12 13
v468h-75q-13 0 -13 12v35q0 13 13 13h75v95q0 118 172 118q75 0 191 -10q12 0 12 -12v-192q54 6 138 6zM632 59q53 0 80.5 9t41.5 34q15 26 20 62t5 108q0 131 -27 170q-25 40 -127 40h-138v-413q73 -10 145 -10z" />
    <glyph glyph-name="f_f_b" unicode="ffb" horiz-adv-x="1252" 
d="M969 546q49 0 83.5 -4.5t60.5 -18t41 -32t24.5 -51t13 -72t3.5 -97.5q0 -91 -8.5 -139.5t-32.5 -80.5q-23 -32 -63.5 -44t-115.5 -12q-101 0 -203 16q-14 2 -14 15v661l-121 2q-57 2 -83.5 -13t-26.5 -55v-80h136q13 0 10 -15l-6 -34q-3 -11 -13 -11h-127v-468
q0 -13 -12 -13h-47q-13 0 -13 13v468h-272v-468q0 -13 -12 -13h-47q-13 0 -13 13v468h-75q-12 0 -12 12v35q0 13 12 13h75v106q0 74 53 93q38 14 83 14q37 0 83 -8q11 -2 11 -13v-31q0 -13 -13 -13h-56q-48 0 -66.5 -9t-22.5 -47v-92h272v95q0 118 172 118q77 0 191 -10
q13 0 13 -12v-192q54 6 138 6zM975 59q97 0 122 40q26 41 26 173q0 131 -27 170q-25 40 -127 40h-138v-413q70 -10 144 -10z" />
    <glyph glyph-name="f_f_j" unicode="ffj" horiz-adv-x="892" 
d="M588 754q26 0 71 -8q11 -2 11 -13v-31q0 -13 -13 -13h-44q-48 0 -66 -9t-22 -47v-92h280q12 0 12 -13v-649q0 -43 -22 -60q-27 -20 -73 -18q-34 0 -49 3q-12 3 -12 14v35q0 12 13 12h28q28 0 35.5 8t7.5 38v570h-220v-468q0 -13 -13 -13h-47q-13 0 -13 13v468h-268v-468
q0 -13 -13 -13h-47q-12 0 -12 13v468h-75q-13 0 -13 12v35q0 13 13 13h75v106q0 107 135 107q37 0 83 -8q11 -2 11 -13v-31q0 -13 -13 -13h-56q-48 0 -66 -9t-22 -47v-92h268v106q0 107 136 107zM782 740q46 0 46 -46q0 -48 -46 -48q-48 0 -48 48q0 46 48 46z" />
    <glyph glyph-name="f_f_k" unicode="ffk" horiz-adv-x="1163" 
d="M1095 524l-191 -195l252 -307q15 -22 -14 -22h-51q-13 0 -20 10l-245 302v-299q0 -13 -13 -13h-47q-12 0 -12 13v674l-122 2q-57 2 -83.5 -13t-26.5 -55v-80h136q13 0 10 -15l-6 -34q-2 -11 -13 -11h-127v-468q0 -13 -12 -13h-47q-13 0 -13 13v468h-267v-468
q0 -13 -12 -13h-47q-13 0 -13 13v468h-75q-12 0 -12 12v35q0 13 12 13h75v106q0 74 53 93q38 14 83 14q37 0 83 -8q11 -2 11 -13v-31q0 -13 -13 -13h-56q-48 0 -66.5 -9t-22.5 -47v-92h267v95q0 118 173 118q76 0 190 -10q13 0 13 -12v-386l180 186q6 9 19 9h63
q11 0 12.5 -5t-5.5 -12z" />
    <glyph glyph-name="f_j" unicode="fj" horiz-adv-x="552" 
d="M247 754q28 0 74 -8q11 -2 11 -13v-31q0 -13 -13 -13h-47q-48 0 -66 -9t-22 -47v-92h280q13 0 13 -13v-649q0 -55 -35 -67q-28 -11 -61 -11t-49 3q-12 3 -12 14v35q0 12 14 12h28q27 0 34.5 8t7.5 38v570h-220v-468q0 -13 -13 -13h-47q-12 0 -12 13v468h-75q-13 0 -13 12
v35q0 13 13 13h75v106q0 107 135 107zM441 740q46 0 46 -46q0 -48 -46 -48q-47 0 -47 48q0 46 47 46z" />
    <glyph glyph-name="f_k" unicode="fk" horiz-adv-x="825" 
d="M757 524l-192 -195l253 -307q7 -8 3 -15t-18 -7h-50q-13 0 -20 10l-245 302v-299q0 -13 -13 -13h-47q-13 0 -13 13v674l-122 2q-56 2 -82.5 -13t-26.5 -55v-80h135q14 0 11 -15l-6 -34q-3 -11 -14 -11h-126v-468q0 -13 -13 -13h-47q-12 0 -12 13v468h-75q-13 0 -13 12v35
q0 13 13 13h75v95q0 118 172 118q75 0 191 -10q13 0 13 -12v-386l179 186q7 9 20 9h62q23 0 8 -17z" />
    <glyph glyph-name=".notdef" horiz-adv-x="430" 
d="M99 748h461q12 0 12 -12v-723q0 -13 -12 -13h-461q-13 0 -13 13v723q0 12 13 12zM316 625q-71 0 -113 -7q-11 -3 -11 -13v-38q0 -9 9 -9h115q55 0 75.5 -11t20.5 -47v-26q0 -27 -9 -42t-30 -25l-80 -38q-28 -16 -35.5 -28.5t-5.5 -35.5l3 -40q0 -5 6 -5h49q6 0 6 6l1 19
q1 14 6.5 20t26.5 16l68 33q42 19 56.5 43t14.5 75v37q0 75 -53 97q-44 19 -120 19zM241 165q0 -41 44 -41t44 41q0 42 -44 42t-44 -42z" />
    <glyph glyph-name=".null" horiz-adv-x="0" 
 />
    <glyph glyph-name="nonmarkingreturn" horiz-adv-x="333" 
 />
    <glyph glyph-name="space" unicode=" " horiz-adv-x="235" 
 />
    <glyph glyph-name="exclam" unicode="!" horiz-adv-x="248" 
d="M101 748h46q13 0 13 -12v-372q0 -12 -1 -19l-11 -147q-1 -13 -13 -13h-23q-12 0 -12 13l-11 147q-1 7 -1 19v372q0 12 13 12zM171 43q0 -48 -47 -48t-47 48q0 46 47 46t47 -46z" />
    <glyph glyph-name="quotedbl" unicode="&#x22;" horiz-adv-x="374" 
d="M78 748h46q13 0 13 -12v-107q0 -12 -1 -19l-10 -135q-1 -13 -13 -13h-23q-12 0 -13 13l-11 135q-1 7 -1 19v107q0 12 13 12zM250 748h47q12 0 12 -12v-107v-19l-11 -135q-1 -13 -13 -13h-23q-12 0 -13 13l-11 135v19v107q0 12 12 12z" />
    <glyph glyph-name="numbersign" unicode="#" horiz-adv-x="646" 
d="M475 500v-254h107q13 0 13 -13v-38q0 -13 -13 -13h-107v-169q0 -13 -13 -13h-44q-13 0 -13 13v169h-173v-169q0 -13 -13 -13h-44q-12 0 -12 13v169h-98q-13 0 -13 13v38q0 13 13 13h98v254h-99q-12 0 -12 12v39q0 12 12 12h99v173q0 12 12 12h44q13 0 13 -12v-173h173
v173q0 12 13 12h44q13 0 13 -12v-173h107q12 0 12 -12v-39q0 -12 -12 -12h-107zM232 500v-254h173v254h-173z" />
    <glyph glyph-name="dollar" unicode="$" horiz-adv-x="602" 
d="M220 449l228 -86q60 -23 83.5 -61t23.5 -93v-27q0 -74 -45 -109q-55 -40 -181 -42v-79q0 -13 -13 -13h-31q-13 0 -13 13v79q-123 1 -216 9q-6 0 -6 6v48q0 5 7 5h284q71 0 104.5 17.5t33.5 65.5v20q0 40 -16.5 65t-61.5 43l-245 92q-54 20 -74.5 55t-20.5 92v20
q0 84 59 116q55 29 148 33v80q0 13 13 13h32q12 0 12 -13v-79q81 0 186 -9q5 0 5 -6v-48q0 -5 -6 -5h-234q-73 0 -105.5 -19.5t-32.5 -64.5v-15q0 -41 16.5 -63t65.5 -40z" />
    <glyph glyph-name="percent" unicode="%" horiz-adv-x="925" 
d="M212 753q99 0 136 -43q37 -41 37 -155t-37 -157q-36 -42 -136 -42t-137 42q-37 43 -37 157t37 155q37 43 137 43zM630 748h37q13 0 6 -13l-379 -722q-7 -13 -20 -13h-37q-13 0 -6 13l379 723q6 12 20 12zM111 555q0 -77 21.5 -106t79.5 -29q57 0 78.5 29t21.5 106
q0 76 -21 104.5t-79 28.5t-79.5 -28.5t-21.5 -104.5zM887 194q0 -114 -37 -157q-36 -42 -136 -42t-137 42q-36 44 -36 157q0 114 37 155q38 42 136 42t136 -42q37 -41 37 -155zM613 194q0 -77 21.5 -106t79.5 -29t79.5 29t21.5 106q0 76 -21.5 104.5t-79.5 28.5t-79.5 -28.5
t-21.5 -104.5z" />
    <glyph glyph-name="ampersand" unicode="&#x26;" horiz-adv-x="647" 
d="M319 753q67 0 110 -6q12 0 12 -9v-42q0 -10 -13 -10h-111q-94 0 -135 -23q-39 -23 -39 -98v-21q0 -77 33 -107t117 -30h280q13 0 13 -13v-28q0 -11 -13 -12l-71 -12v-227q0 -34 12.5 -45t52.5 -11h37q13 0 13 -12v-34q0 -10 -11 -13q-25 -5 -54 -5q-70 0 -99 30
q-66 -30 -149 -30q-127 0 -183 41q-55 40 -55 157v17q0 133 95 165q-95 30 -95 165v20q0 115 58 154t195 39zM429 86v255h-137q-83 0 -115.5 -30t-33.5 -105v-16q0 -69 40 -98.5t121 -29.5q63 0 125 24z" />
    <glyph glyph-name="quotesingle" unicode="'" horiz-adv-x="202" 
d="M78 748h46q13 0 13 -12v-107q0 -12 -1 -19l-10 -135q-1 -13 -13 -13h-23q-12 0 -13 13l-11 135q-1 7 -1 19v107q0 12 13 12z" />
    <glyph glyph-name="parenleft" unicode="(" horiz-adv-x="313" 
d="M232 808h53q5 0 5 -5v-10l-2 -6l-68 -95q-39 -57 -71 -139q-10 -24 -14 -64q-2 -22 -5 -67v-85v-85q3 -46 5 -66q4 -41 14 -65q7 -19 27 -61q24 -52 112 -172l2 -6v-10q0 -5 -5 -5h-53q-6 0 -11 5q-39 49 -69 92q-45 64 -74 141q-10 26 -14 68q-4 43 -6 71v93v93
q2 28 6 71t14 69q11 28 28 63q25 54 115 169q4 6 11 6z" />
    <glyph glyph-name="parenright" unicode=")" horiz-adv-x="313" 
d="M28 808h53q7 0 11 -6q37 -48 69 -92q44 -60 74 -140q10 -26 14 -69q5 -48 5 -71q1 -18 1 -93q0 -74 -1 -93q0 -23 -5 -71q-4 -42 -14 -68t-28 -64q-29 -59 -115 -169q-5 -5 -11 -5h-53q-5 0 -5 5v10l2 6q47 64 67 95q36 51 72 138q8 21 13 65q5 47 5 66q1 16 1 85t-1 85
q0 20 -5 67q-5 43 -13 64q-10 26 -27 62q-24 52 -112 172l-2 6v10q0 5 5 5z" />
    <glyph glyph-name="asterisk" unicode="*" horiz-adv-x="423" 
d="M197 767h28q13 0 12 -13l-4 -131l121 46q13 4 16 -7l9 -26q4 -13 -9 -16l-123 -39l83 -99q8 -12 -2 -19l-21 -16q-11 -7 -18 3l-77 105l-77 -106q-8 -11 -18 -2l-20 15q-12 8 -3 18l82 101l-124 38q-12 3 -8 16l8 26q3 13 17 7l119 -45l-4 131q0 13 13 13z" />
    <glyph glyph-name="plus" unicode="+" horiz-adv-x="543" 
d="M250 539h43q13 0 13 -13v-184h184q13 0 13 -12v-43q0 -13 -13 -13h-184v-185q0 -13 -13 -13h-43q-13 0 -13 13v185h-184q-13 0 -13 13v43q0 12 13 12h184v184q0 13 13 13z" />
    <glyph glyph-name="comma" unicode="," horiz-adv-x="228" 
d="M94 112h65q9 0 9 -9v-11q0 -7 -4 -12l-117 -220q-6 -8 -13 -4l-16 8q-7 4 -3 13l68 228q3 7 11 7z" />
    <glyph glyph-name="hyphen" unicode="-" horiz-adv-x="434" 
d="M82 295h269q13 0 13 -13v-42q0 -13 -13 -13h-269q-12 0 -12 13v42q0 13 12 13z" />
    <glyph glyph-name="period" unicode="." horiz-adv-x="208" 
d="M105 89q46 0 46 -46q0 -48 -46 -48q-48 0 -48 48q0 46 48 46z" />
    <glyph glyph-name="slash" unicode="/" horiz-adv-x="451" 
d="M387 780h32q11 0 6 -15l-340 -781q-8 -14 -20 -14h-33q-14 0 -6 14l342 781q6 15 19 15z" />
    <glyph glyph-name="zero" unicode="0" horiz-adv-x="662" 
d="M599 373q0 -222 -54 -300t-215 -78q-86 0 -135.5 17.5t-79.5 61.5t-41.5 112.5t-11.5 186.5q0 222 53 301q54 79 215 79t215 -79q54 -78 54 -301zM330 62q117 0 154 64q39 65 39 247q0 183 -39 248t-154 65t-154 -65q-38 -65 -38 -248q0 -182 38 -247q39 -64 154 -64z
" />
    <glyph glyph-name="one" unicode="1" horiz-adv-x="421" 
d="M268 647v-580h121q13 0 13 -12v-42q0 -13 -13 -13h-326q-12 0 -12 13v42q0 12 12 12h129v562q0 33 -19 45t-69 12h-55q-14 -2 -14 12v33q0 9 12 13q27 9 73 9q40 0 72 -8q71 -13 76 -98z" />
    <glyph glyph-name="two" unicode="2" horiz-adv-x="584" 
d="M265 753q90 0 149 -16q110 -30 110 -154v-61q0 -63 -19 -101.5t-68 -63.5l-239 -131q-45 -25 -62 -49t-17 -63v-47h401q7 0 7 -5v-56q0 -6 -6 -6h-454q-25 0 -25 28v86q0 60 26 97.5t94 73.5l241 132q26 14 35 38.5t9 66.5v61q0 66 -56 86q-48 17 -126 17h-178q-7 0 -7 6
v43q0 7 6 8q101 10 179 10z" />
    <glyph glyph-name="three" unicode="3" horiz-adv-x="577" 
d="M210 753q174 0 238 -38q63 -37 63 -155v-20q0 -135 -95 -165q95 -32 95 -165v-17q0 -119 -63 -159q-61 -39 -238 -39q-70 0 -145 6q-12 1 -12 5v49q0 7 13 7h151q126 0 172 26q45 27 45 107v11q-1 75 -33.5 105t-115.5 30h-183q-11 0 -11 10v46q0 10 11 10h182
q84 0 117 30t33 107v18q0 78 -47 101q-48 23 -177 23h-144q-13 0 -13 7v47q0 7 12 7q60 6 145 6z" />
    <glyph glyph-name="four" unicode="4" horiz-adv-x="629" 
d="M196 748h50q13 0 10 -15l-141 -469h268v210q0 12 9 15l52 21q16 6 16 -8v-238h131q14 0 14 -12v-42q0 -13 -14 -13h-131v-184q0 -13 -13 -13h-51q-13 0 -13 13v184h-338q-13 0 -13 13v22q0 12 7 33l141 475q3 8 16 8z" />
    <glyph glyph-name="five" unicode="5" horiz-adv-x="596" 
d="M96 748h417q13 0 13 -12v-42q0 -13 -13 -13h-356l-16 -240q98 2 101 2q174 0 236 -43q64 -43 65 -170v-24q-2 -126 -65 -169q-63 -42 -236 -42q-107 0 -167 4q-12 0 -12 8v47q0 8 12 8h178q119 0 166 29q47 30 47 114v23q-2 86 -48 117t-165 31h-178q-12 0 -12 8v48
l18 302q0 14 15 14z" />
    <glyph glyph-name="six" unicode="6" horiz-adv-x="599" 
d="M285 748h58q17 0 9 -15l-153 -301q42 14 106 14q135 0 195.5 -49t60.5 -164v-25q0 -115 -60 -164t-196 -49t-196.5 49t-60.5 165v22q0 73 24 122l197 387q5 8 16 8zM125 230v-19q0 -81 42.5 -115t137.5 -34q94 0 137 34t43 114v20q0 80 -42.5 114t-137.5 34t-137.5 -34
t-42.5 -114z" />
    <glyph glyph-name="seven" unicode="7" horiz-adv-x="551" 
d="M35 748h481q13 0 13 -12v-32q0 -7 -6 -19l-341 -676q-4 -9 -15 -9h-58q-17 0 -9 15l335 666h-400q-14 0 -14 12v43q0 12 14 12z" />
    <glyph glyph-name="eight" unicode="8" horiz-adv-x="629" 
d="M308 753h15q118 0 174.5 -50t56.5 -155q0 -66 -22 -108.5t-71 -71.5q58 -25 84.5 -66t26.5 -105q0 -103 -62 -152.5t-188 -49.5h-17q-128 0 -189 50t-61 156q0 54 30 103t84 82q-93 50 -93 162q0 105 56.5 155t175.5 50zM323 686h-15q-155 0 -155 -128q0 -54 27.5 -85
t82.5 -49l125 -31q90 53 90 155q0 138 -155 138zM377 319l-136 37q-110 -57 -110 -158q0 -136 174 -136h17q174 0 174 130q0 54 -29.5 83t-89.5 44z" />
    <glyph glyph-name="nine" unicode="9" horiz-adv-x="599" 
d="M295 753q135 0 195.5 -49t60.5 -164v-22q0 -72 -23 -123l-198 -386q-4 -9 -15 -9h-59q-17 0 -8 15l152 301q-36 -13 -105 -13q-136 0 -196.5 48.5t-60.5 163.5v26q0 114 60.5 163t196.5 49zM295 686q-95 0 -138 -34t-43 -114v-19q0 -81 43 -115t138 -34q94 0 137 34
t43 114v19q0 81 -42.5 115t-137.5 34z" />
    <glyph glyph-name="colon" unicode=":" horiz-adv-x="234" 
d="M118 546q46 0 46 -46q0 -48 -46 -48q-48 0 -48 48q0 46 48 46zM118 89q46 0 46 -46q0 -48 -46 -48q-48 0 -48 48q0 46 48 46z" />
    <glyph glyph-name="semicolon" unicode=";" horiz-adv-x="257" 
d="M135 546q46 0 46 -46q0 -48 -46 -48q-48 0 -48 48q0 46 48 46zM107 112h66q8 0 8 -9v-11q0 -7 -4 -12l-117 -220q-6 -8 -13 -4l-16 8q-7 4 -3 13l68 228q3 7 11 7z" />
    <glyph glyph-name="less" unicode="&#x3c;" horiz-adv-x="543" 
d="M469 593h7q4 0 4 -4v-53q0 -10 -10 -14l-355 -154l355 -154q10 -4 10 -14v-53q0 -4 -4 -4h-7q-5 0 -6 1l-416 183q-10 4 -10 15v52q0 11 10 15l416 183q1 1 6 1z" />
    <glyph glyph-name="equal" unicode="=" horiz-adv-x="640" 
d="M85 475h470q13 0 13 -13v-43q0 -13 -13 -13h-470q-13 0 -13 13v43q0 13 13 13zM85 228h470q13 0 13 -13v-43q0 -13 -13 -13h-470q-13 0 -13 13v43q0 13 13 13z" />
    <glyph glyph-name="greater" unicode="&#x3e;" horiz-adv-x="543" 
d="M67 593h7q5 0 6 -1l416 -183q10 -4 10 -15v-52q0 -11 -10 -15l-416 -183q-1 -1 -6 -1h-7q-4 0 -4 4v53q0 10 10 14l355 154l-355 154q-10 4 -10 14v53q0 4 4 4z" />
    <glyph glyph-name="question" unicode="?" horiz-adv-x="499" 
d="M205 753q92 0 146 -15q52 -14 77 -51t28 -106v-58q0 -77 -24 -115q-22 -37 -85 -66l-105 -51q-34 -16 -40 -25q-8 -10 -9 -36l-2 -38q0 -7 -6 -7h-52q-7 0 -7 7l-4 66q-1 29 8.5 43.5t42.5 32.5l142 68q37 18 51 43t14 78v58q0 56 -33 81q-15 12 -40 16q-35 8 -102 8
h-163q-13 0 -13 13v34q0 13 12 14q60 6 164 6zM158 89q46 0 46 -46q0 -48 -46 -48q-48 0 -48 48q0 46 48 46z" />
    <glyph glyph-name="at" unicode="@" horiz-adv-x="1045" 
d="M536 749q230 0 341 -96t111 -303q0 -165 -74 -234q-74 -70 -229 -68h-190q-84 1 -118.5 29t-34.5 100v9q0 63 34.5 91t106.5 28h144v64q0 45 -28.5 64t-91.5 19h-113q-11 0 -11 10v26q0 10 10 11q53 8 107 8q98 0 143.5 -29t45.5 -99v-287q117 0 181 49q71 53 71 206
q0 184 -101.5 272t-306.5 88q-222 0 -326.5 -106t-104.5 -329q0 -224 100 -327q59 -62 140 -85q68 -20 159 -25q13 0 13 -13v-17q0 -13 -13 -13q-228 1 -337.5 119.5t-109.5 362.5q0 246 115.5 360.5t366.5 114.5zM627 102v149h-142q-51 0 -67 -14q-14 -14 -14 -57v-4
q0 -44 21 -58.5t77 -15.5h125z" />
    <glyph glyph-name="A" unicode="A" horiz-adv-x="660" 
d="M328 753q68 0 88 -19q21 -20 42 -96l171 -624q3 -14 -10 -14h-57q-8 0 -11 13l-65 231h-314l-66 -231q-4 -13 -12 -13h-57q-13 0 -10 14l177 624q21 75 42 95q22 20 82 20zM328 686q-23 0 -31 -11q-9 -12 -20 -55l-87 -308h278l-83 308q-12 44 -21 55q-8 11 -36 11z" />
    <glyph glyph-name="B" unicode="B" horiz-adv-x="676" 
d="M345 753q133 0 194 -45q62 -45 62 -162q0 -145 -84 -166v-3q104 -20 104 -179q0 -118 -60 -161q-60 -42 -183 -42q-161 0 -278 5q-13 1 -13 13v722q0 12 13 13q88 5 245 5zM340 686h-176v-279h159q88 0 133 11q38 11 52 37t17 86q0 87 -43 115q-43 30 -142 30zM392 343
h-228v-281h218q89 0 126 29t37 107q0 82 -36 113.5t-117 31.5z" />
    <glyph glyph-name="C" unicode="C" horiz-adv-x="587" 
d="M358 753q120 0 180 -6q12 -1 12 -14v-34q0 -13 -13 -13h-179q-74 0 -115 -14.5t-65 -51.5q-23 -37 -31.5 -91.5t-8.5 -154.5t8.5 -154t31.5 -92q24 -37 65 -51.5t115 -14.5h179q13 0 13 -12v-35q0 -13 -12 -13q-66 -7 -180 -7q-137 0 -207 49q-51 40 -69.5 115t-19.5 215
q0 174 35 259q30 66 89.5 92t171.5 28z" />
    <glyph glyph-name="D" unicode="D" horiz-adv-x="733" 
d="M371 753q167 0 235 -86q67 -85 67 -292q0 -208 -67 -294q-68 -86 -235 -86q-154 0 -271 5q-13 1 -13 13v722q0 12 13 13q88 5 271 5zM359 686h-195v-624h207q126 0 176 71t50 242q0 169 -53 240t-185 71z" />
    <glyph glyph-name="E" unicode="E" 
d="M102 748h452q13 0 13 -12v-42q0 -13 -13 -13h-390v-287h354q13 0 13 -12v-42q0 -13 -13 -13h-354v-260h390q13 0 13 -12v-42q0 -13 -13 -13h-452q-15 0 -15 15v718q0 15 15 15z" />
    <glyph glyph-name="F" unicode="F" horiz-adv-x="593" 
d="M102 748h456q13 0 13 -12v-42q0 -13 -13 -13h-394v-286h358q13 0 13 -13v-42q0 -13 -13 -13h-358v-314q0 -13 -13 -13h-51q-13 0 -13 13v720q0 15 15 15z" />
    <glyph glyph-name="G" unicode="G" horiz-adv-x="652" 
d="M358 753q123 0 183 -6q12 -1 12 -14v-34q0 -13 -13 -13h-182q-74 0 -115 -14.5t-65 -52.5q-23 -37 -31.5 -91.5t-8.5 -154.5t8.5 -154t31.5 -91q24 -37 65 -51.5t115 -14.5h164v293q0 12 13 12h47q13 0 13 -12v-311q0 -11 -4 -16q-24 -35 -218 -33h-15q-136 0 -207 48
q-51 40 -69.5 115t-19.5 215q0 117 13 185.5t46 113.5t88.5 63t148.5 18z" />
    <glyph glyph-name="H" unicode="H" horiz-adv-x="767" 
d="M617 748h51q12 0 12 -12v-723q0 -13 -12 -13h-51q-13 0 -13 13v336h-440v-336q0 -13 -13 -13h-51q-13 0 -13 13v723q0 12 13 12h51q13 0 13 -12v-319h440v319q0 12 13 12z" />
    <glyph glyph-name="I" unicode="I" horiz-adv-x="250" 
d="M99 748h51q13 0 13 -12v-723q0 -13 -13 -13h-51q-12 0 -12 13v723q0 12 12 12z" />
    <glyph glyph-name="J" unicode="J" horiz-adv-x="561" 
d="M138 748h329q15 0 15 -15v-356q1 -223 -62 -303q-63 -79 -247 -79q-80 0 -144 7q-12 0 -12 13v35q0 12 12 12h144q143 0 189 64q46 63 44 251l-1 304h-267q-13 0 -13 13v42q0 12 13 12z" />
    <glyph glyph-name="K" unicode="K" horiz-adv-x="595" 
d="M496 748h59q20 0 7 -16l-318 -330l337 -380q7 -8 3.5 -15t-17.5 -7h-55q-13 0 -19 9l-329 374v-370q0 -13 -13 -13h-51q-13 0 -13 13v723q0 12 13 12h51q13 0 13 -12v-315l314 319q6 8 18 8z" />
    <glyph glyph-name="L" unicode="L" horiz-adv-x="569" 
d="M100 748h51q13 0 13 -12v-669h378q13 0 13 -12v-42q0 -13 -13 -13h-440q-15 0 -15 15v721q0 12 13 12z" />
    <glyph glyph-name="M" unicode="M" horiz-adv-x="924" 
d="M731 748h56q13 0 15 -14l62 -721q0 -13 -13 -13h-51q-12 0 -13 13l-48 609l-232 -587q-5 -12 -18 -12h-54q-13 0 -18 12l-232 587l-48 -609q-1 -13 -13 -13h-51q-13 0 -13 13l62 721q2 14 15 14h56q14 0 21 -7t16 -30l232 -601l232 601q9 23 16 30t21 7z" />
    <glyph glyph-name="N" unicode="N" horiz-adv-x="763" 
d="M613 748h51q12 0 12 -12v-723q0 -13 -12 -13h-49q-17 0 -28 15l-423 634v-636q0 -13 -13 -13h-51q-13 0 -13 13v723q0 12 13 12h54q21 0 29 -4t18 -19l399 -598v609q0 12 13 12z" />
    <glyph glyph-name="O" unicode="O" horiz-adv-x="717" 
d="M358 753q138 0 208 -49q51 -40 69.5 -115.5t19.5 -215.5q0 -117 -13 -185.5t-46 -113.5q-33 -44 -88 -61.5t-150 -17.5t-149.5 17.5t-87.5 61.5q-33 45 -46 113.5t-13 185.5q0 175 35 260q30 66 89.5 92t171.5 28zM471 672q-44 14 -113 14t-113 -14q-81 -28 -98 -147
q-8 -59 -8 -152t8 -152q18 -118 98 -146q40 -13 113 -13t113 13q81 28 99 146q8 59 8 152t-8 152q-18 119 -99 147z" />
    <glyph glyph-name="P" unicode="P" horiz-adv-x="633" 
d="M290 753q139 0 203 -24q55 -20 75.5 -67.5t23.5 -145.5q0 -80 -15.5 -125t-50.5 -72q-20 -15 -58 -23q-58 -13 -178 -13h-126v-270q0 -13 -13 -13h-51q-13 0 -13 13v722q0 12 13 13q88 5 190 5zM285 686h-121v-335h121q53 0 70 1q73 2 98 14q41 19 49 48q14 42 14 101
q0 62 -10 94t-39 49q-27 18 -68 23q-43 5 -114 5z" />
    <glyph glyph-name="Q" unicode="Q" horiz-adv-x="717" 
d="M655 373q0 -209 -51 -289q-51 -79 -199 -88l36 -119q3 -14 -13 -14h-49q-14 0 -18 13l-35 120q-157 4 -211 84q-53 80 -53 293q0 175 35 260q30 66 89.5 92t171.5 28q138 0 208 -49q51 -40 69.5 -115.5t19.5 -215.5zM246 75q39 -13 112 -13t113 13q81 28 99 146
q8 59 8 152t-8 152q-18 119 -99 147q-44 14 -113 14t-113 -14q-81 -28 -98 -147q-8 -59 -8 -152t8 -152q18 -118 99 -146z" />
    <glyph glyph-name="R" unicode="R" horiz-adv-x="645" 
d="M290 753q139 0 203 -24q55 -20 75.5 -67.5t23.5 -145.5q0 -122 -37 -169q-37 -48 -131 -58l171 -272q5 -7 2.5 -12t-12.5 -5h-44q-21 0 -34 18l-168 266l-175 -1v-270q0 -13 -13 -13h-51q-13 0 -13 13v722q0 12 13 13q88 5 190 5zM285 686h-121v-335h121q53 0 70 1
q73 2 98 14q41 19 49 48q14 42 14 101q0 62 -10 94t-39 49q-27 18 -68 23q-43 5 -114 5z" />
    <glyph glyph-name="S" unicode="S" horiz-adv-x="595" 
d="M307 753q94 0 195 -10q11 -2 11 -11v-34q0 -12 -10 -12h-221q-76 0 -111.5 -24t-35.5 -77v-16q0 -45 17 -69t65 -44l228 -96q60 -26 83.5 -67t23.5 -102v-30q0 -85 -51 -125q-23 -17 -58 -27q-56 -14 -143 -14q-135 0 -243 11q-10 0 -10 12v33q0 11 12 11h265
q78 0 115 22.5t37 77.5v22q0 42 -17 71t-61 48l-245 101q-38 16 -61 42q-21 26 -27.5 52t-6.5 68v22q0 80 47 120q61 45 202 45z" />
    <glyph glyph-name="T" unicode="T" horiz-adv-x="599" 
d="M27 748h546q12 0 12 -12v-42q0 -13 -12 -13h-235v-668q0 -13 -13 -13h-50q-13 0 -13 13v668h-235q-13 0 -13 13v42q0 12 13 12z" />
    <glyph glyph-name="U" unicode="U" horiz-adv-x="738" 
d="M594 748h51q13 0 13 -12v-363q0 -121 -12.5 -189.5t-45.5 -112.5q-33 -43 -86 -59.5t-145 -16.5t-145 16.5t-86 59.5q-33 44 -45.5 112.5t-12.5 189.5v363q0 12 12 12h51q13 0 13 -12v-363q0 -99 9.5 -155.5t33.5 -92.5t63 -49.5t107 -13.5t107 13.5t63 49.5t33.5 92.5
t9.5 155.5v363q0 8 2 10t10 2z" />
    <glyph glyph-name="V" unicode="V" horiz-adv-x="648" 
d="M40 748h58q5 0 7 -2t4 -11l170 -607q12 -45 19 -55.5t24 -10.5q22 0 30 11q9 12 19 55l165 607q1 13 11 13h57q8 0 10 -2.5t1 -10.5l-171 -625q-21 -77 -39 -97q-18 -18 -83 -18q-58 0 -76 18q-17 19 -40 97l-176 625q-2 8 0 10.5t10 2.5z" />
    <glyph glyph-name="W" unicode="W" horiz-adv-x="1074" 
d="M970 748h58q8 0 9.5 -2t0.5 -11l-146 -625q-16 -75 -37 -96q-19 -19 -79 -19q-66 0 -85 19t-37 96l-117 483l-116 -483q-20 -78 -38 -96q-19 -19 -84 -19q-61 0 -80 19q-21 21 -37 96l-146 625q-1 8 1 10.5t10 2.5h57q5 0 7.5 -2.5t4.5 -10.5l139 -607q10 -42 18 -54
t26 -12q22 0 30 11q9 12 19 55l145 576q1 13 14 13h60q11 0 15 -13l145 -576q10 -43 19 -55q8 -11 30 -11q18 0 25.5 11.5t17.5 54.5l140 607q4 13 11 13z" />
    <glyph glyph-name="X" unicode="X" horiz-adv-x="619" 
d="M517 748h55q22 0 9 -18l-227 -340l249 -372q12 -18 -9 -18h-55q-14 0 -23 13l-207 310l-206 -310q-9 -13 -23 -13h-55q-21 0 -9 18l248 372l-228 340q-10 18 9 18h56q15 0 22 -13l186 -277l185 277q7 13 23 13z" />
    <glyph glyph-name="Y" unicode="Y" horiz-adv-x="638" 
d="M563 748h55q20 0 10 -18l-271 -508v-209q0 -13 -12 -13h-51q-13 0 -13 13v209l-270 508q-11 18 9 18h55q15 0 22 -13l222 -427l222 427q7 13 22 13z" />
    <glyph glyph-name="Z" unicode="Z" horiz-adv-x="638" 
d="M56 748h527q13 0 13 -13v-33q0 -10 -6 -18l-459 -617h461q14 0 14 -12v-42q0 -13 -14 -13h-547q-13 0 -13 14l-1 31q0 11 7 18l460 618h-441q-14 0 -14 12l-1 43q0 12 14 12z" />
    <glyph glyph-name="bracketleft" unicode="[" horiz-adv-x="369" 
d="M103 808h222q13 0 13 -13v-39q0 -13 -13 -13h-163v-813h163q13 0 13 -13v-39q0 -13 -13 -13h-222q-13 0 -13 13v917q0 13 13 13z" />
    <glyph glyph-name="backslash" unicode="\" horiz-adv-x="452" 
d="M33 780h32q13 0 18 -15l343 -781q6 -14 -7 -14h-33q-11 0 -19 14l-341 781q-5 15 7 15z" />
    <glyph glyph-name="bracketright" unicode="]" horiz-adv-x="369" 
d="M44 808h223q12 0 12 -13v-917q0 -13 -12 -13h-223q-13 0 -13 13v39q0 13 13 13h163v813h-163q-13 0 -13 13v39q0 13 13 13z" />
    <glyph glyph-name="asciicircum" unicode="^" horiz-adv-x="486" 
d="M222 730h41q10 0 16 -10l163 -325q8 -15 -10 -15h-52q-11 0 -15 10l-123 250l-123 -250q-4 -10 -15 -10h-51q-17 0 -9 15l162 325q6 10 16 10z" />
    <glyph glyph-name="underscore" unicode="_" horiz-adv-x="521" 
d="M12 -44h496q13 0 13 -13v-27q0 -12 -13 -12h-496q-12 0 -12 12v27q0 13 12 13z" />
    <glyph glyph-name="grave" unicode="`" horiz-adv-x="399" 
d="M129 748h63q8 0 11 -6l74 -119q5 -8 -2 -12l-14 -11q-6 -4 -13 1l-124 120q-4 5 -4 10v8q0 9 9 9z" />
    <glyph glyph-name="a" unicode="a" horiz-adv-x="524" 
d="M233 546q111 0 165.5 -36.5t54.5 -118.5v-350q0 -19 -18 -26q-54 -20 -213 -20q-102 0 -142 33q-41 35 -41 125q0 79 40 113.5t127 34.5h175v79q0 54 -35.5 78t-112.5 24h-135q-13 0 -13 13v28q0 11 12 14q62 9 136 9zM381 71v167h-175q-50 0 -72.5 -19.5t-22.5 -65.5
q0 -55 27.5 -75t99.5 -20q95 0 143 13z" />
    <glyph glyph-name="b" unicode="b" horiz-adv-x="568" 
d="M87 748h47q13 0 13 -13v-195q53 6 138 6q78 0 119 -11.5t65 -44.5q25 -32 33.5 -79.5t8.5 -139.5q0 -91 -8.5 -139.5t-32.5 -80.5q-23 -32 -63.5 -44t-115.5 -12q-101 0 -203 16q-14 2 -14 15v709q0 13 13 13zM285 482h-138v-413q70 -10 144 -10q97 0 122 40
q26 41 26 173q0 131 -27 170q-27 40 -127 40z" />
    <glyph glyph-name="c" unicode="c" horiz-adv-x="475" 
d="M279 546q96 0 148 -7q12 -1 12 -13v-31q0 -13 -13 -13h-147q-94 0 -123 -41q-27 -41 -27 -170q0 -131 27 -171q29 -41 123 -41h147q13 0 13 -13v-31q0 -11 -12 -13q-62 -7 -148 -7q-137 0 -180 54q-42 55 -42 222t42 221q43 54 180 54z" />
    <glyph glyph-name="d" unicode="d" horiz-adv-x="568" 
d="M434 748h47q13 0 13 -13v-709q0 -13 -14 -15q-102 -16 -203 -16q-137 0 -179 53q-41 55 -41 223q0 128 24 192q22 48 66 64.5t137 18.5q84 0 138 -6v195q0 13 12 13zM422 69v413h-138q-101 0 -128 -40q-26 -40 -26 -170q0 -133 25 -173t122 -40q72 0 145 10z" />
    <glyph glyph-name="e" unicode="e" horiz-adv-x="534" 
d="M275 546q128 0 169 -51q43 -52 44 -206v-29q0 -15 -5.5 -20t-25.5 -5h-327q2 -107 30 -141q29 -35 115 -35h157q13 0 13 -13v-31q0 -11 -12 -13q-62 -7 -158 -7q-72 0 -112.5 12t-64.5 44q-23 32 -32 81.5t-9 138.5q0 166 41 221q42 54 177 54zM275 482q-89 0 -116 -36
q-28 -35 -29 -146h285q-1 111 -28 147q-26 35 -112 35z" />
    <glyph glyph-name="f" unicode="f" horiz-adv-x="346" 
d="M247 754q38 0 84 -8q11 -2 11 -13v-31q0 -13 -13 -13h-57q-48 0 -66 -9t-22 -47v-92h135q14 0 11 -15l-6 -34q-3 -11 -14 -11h-126v-468q0 -13 -13 -13h-47q-12 0 -12 13v468h-75q-13 0 -13 12v35q0 13 13 13h75v106q0 107 135 107z" />
    <glyph glyph-name="g" unicode="g" horiz-adv-x="568" 
d="M278 546q106 0 203 -13q13 -1 13 -15v-477q0 -144 -44 -193q-43 -49 -178 -49q-72 0 -135 7q-12 2 -12 14v31q0 12 12 12h135q92 0 120 28q30 27 30 104v7q-52 -7 -137 -7q-108 0 -163 32q-37 29 -50 82t-14 160q0 168 41 223q42 54 179 54zM422 66v416h-144
q-97 0 -122 -40t-25 -172q0 -101 14 -147q12 -36 44 -50t96 -14q80 0 137 7z" />
    <glyph glyph-name="h" unicode="h" horiz-adv-x="583" 
d="M88 748h47q12 0 12 -13v-194q57 5 143 5q45 0 74 -3q72 -5 99 -33q49 -45 49 -192v-305q0 -13 -13 -13h-47q-13 0 -13 13v305q0 113 -32 140q-18 16 -38.5 20.5t-66.5 4.5h-155v-470q0 -13 -12 -13h-47q-13 0 -13 13v722q0 13 13 13z" />
    <glyph glyph-name="i" unicode="i" horiz-adv-x="223" 
d="M112 740q46 0 46 -46q0 -48 -46 -48q-48 0 -48 48q0 46 48 46zM88 541h47q13 0 13 -13v-515q0 -13 -13 -13h-47q-13 0 -13 13v515q0 13 13 13z" />
    <glyph glyph-name="j" unicode="j" horiz-adv-x="225" 
d="M161 694q0 -48 -47 -48t-47 48q0 46 47 46t47 -46zM90 541h47q13 0 13 -13v-649q0 -55 -35 -67q-28 -11 -61 -11q-32 0 -49 3q-12 3 -12 14v35q0 12 14 12h28q27 0 34.5 8t7.5 38v617q0 13 13 13z" />
    <glyph glyph-name="k" unicode="k" horiz-adv-x="485" 
d="M88 748h47q13 0 13 -14v-388l179 186q7 9 20 9h63q22 0 7 -17l-192 -195l253 -307q15 -22 -15 -22h-50q-13 0 -20 10l-245 302v-298q0 -14 -13 -14h-47q-13 0 -13 14v720q0 14 13 14z" />
    <glyph glyph-name="l" unicode="l" horiz-adv-x="223" 
d="M88 748h47q13 0 13 -12v-723q0 -13 -13 -13h-47q-13 0 -13 13v723q0 12 13 12z" />
    <glyph glyph-name="m" unicode="m" horiz-adv-x="867" 
d="M576 547q72 0 107.5 -7t63.5 -30q29 -23 39.5 -66.5t10.5 -125.5l-1 -305q0 -13 -13 -13h-45q-13 0 -13 13v305q0 113 -32 140q-18 16 -38.5 20.5t-66.5 4.5q-74 0 -135 -11q21 -51 21 -149l-2 -310q0 -13 -11 -13h-47q-13 0 -13 13v309q0 83 -19 123q-8 17 -28 25
q-27 12 -90 12h-118v-469q0 -13 -12 -13h-47q-13 0 -13 13v506q0 12 13 13q89 14 165 14q104 0 157 -28q89 29 167 29z" />
    <glyph glyph-name="n" unicode="n" horiz-adv-x="582" 
d="M289 546q45 0 74 -3q71 -5 99 -33q49 -45 49 -192v-305q0 -13 -15 -13h-45q-13 0 -13 13v305q0 113 -32 140q-18 15 -39 19.5t-66 4.5h-155v-469q0 -13 -12 -13h-47q-13 0 -13 13v506q0 12 13 13q81 14 202 14z" />
    <glyph glyph-name="o" unicode="o" horiz-adv-x="559" 
d="M502 271q0 -91 -9 -139.5t-34 -80.5q-24 -32 -64.5 -44t-115.5 -12q-137 0 -180 54q-42 55 -42 222t42 221q43 54 180 54t180 -54q43 -53 43 -221zM279 482q-94 0 -123 -41q-27 -41 -27 -170q0 -131 27 -171q29 -41 123 -41q96 0 123 41q28 40 28 171q0 130 -28 170
q-27 41 -123 41z" />
    <glyph glyph-name="p" unicode="p" horiz-adv-x="567" 
d="M290 546q138 0 178 -54q42 -54 42 -224q0 -132 -25 -191q-18 -46 -66 -64t-136 -18q-82 0 -137 6v-184q0 -13 -12 -13h-47q-13 0 -13 13v701q0 12 14 15q97 13 202 13zM290 482h-144v-416q71 -7 137 -7q101 0 127 39q27 40 27 171q0 132 -26 173q-25 40 -121 40z" />
    <glyph glyph-name="q" unicode="q" horiz-adv-x="568" 
d="M278 546q106 0 203 -13q13 -3 13 -15v-701q0 -13 -12 -13h-47q-13 0 -13 13v183q-52 -5 -137 -5q-108 0 -163 32q-37 29 -50 82t-14 160q0 91 8.5 140t32.5 81q24 33 64 44.5t115 11.5zM422 66v416h-144q-97 0 -122 -40t-25 -172q0 -101 14 -147q12 -36 44 -50t96 -14
q80 0 137 7z" />
    <glyph glyph-name="r" unicode="r" horiz-adv-x="350" 
d="M218 546q78 0 104 -9q12 -5 12 -14v-29q0 -13 -13 -12h-87q-49 0 -68.5 -12t-19.5 -45v-412q0 -13 -13 -13h-47q-13 0 -13 13v427q0 58 37 83q15 10 38 15q32 8 70 8z" />
    <glyph glyph-name="s" unicode="s" horiz-adv-x="474" 
d="M241 546q98 0 155 -7q12 -1 12 -13v-31q0 -13 -13 -13h-182q-87 0 -87 -60v-16q0 -28 15 -47t52 -34l141 -57q56 -23 75.5 -53t19.5 -81v-12q0 -76 -44 -102q-43 -25 -152 -25q-105 0 -174 8q-12 1 -12 12v31q0 13 12 13h176q72 0 97 12.5t25 50.5v13q0 27 -13.5 44
t-46.5 31l-150 60q-93 38 -93 137v22q0 60 40 88q15 11 44 19q40 10 103 10z" />
    <glyph glyph-name="t" unicode="t" horiz-adv-x="320" 
d="M107 681l47 11q15 5 15 -11v-140h111q13 0 13 -13v-35q0 -12 -13 -12h-111v-366q0 -34 12.5 -45t52.5 -11h53q14 0 14 -12v-34q0 -10 -12 -13q-23 -5 -54 -5q-51 0 -79 8q-60 19 -60 97v381h-56q-13 0 -13 12v35q0 13 13 13h56v127q0 10 11 13z" />
    <glyph glyph-name="u" unicode="u" horiz-adv-x="582" 
d="M448 541h47q13 0 13 -13v-506q0 -7 -2 -9t-11 -4q-81 -14 -202 -14q-72 0 -107.5 7t-64.5 29q-28 23 -39 67t-11 125v305q0 13 14 13h46q13 0 13 -13v-304q0 -114 32 -141q18 -15 39 -19.5t66 -4.5h154v469q0 13 13 13z" />
    <glyph glyph-name="v" unicode="v" horiz-adv-x="526" 
d="M430 541h52q12 0 11 -14l-115 -417q-21 -79 -38 -98q-17 -17 -79 -17q-57 0 -74 17q-16 19 -38 98l-118 417q-3 14 10 14h53q7 0 12 -14l111 -399q13 -46 19 -55q7 -10 25 -10q23 0 30 10q9 12 19 55l108 399q5 14 12 14z" />
    <glyph glyph-name="w" unicode="w" horiz-adv-x="816" 
d="M717 541h51q14 0 11 -14l-89 -412q-18 -81 -36 -100q-17 -20 -70 -20q-54 0 -70 18q-14 19 -34 102l-72 302l-72 -302q-20 -84 -35 -102t-69 -18q-53 0 -71 20q-17 20 -35 100l-89 412q-3 14 11 14h51q8 0 11 -14l87 -407q8 -36 14.5 -46.5t19.5 -10.5q15 0 20.5 9
t14.5 48l96 386q4 16 13 16h66q9 0 13 -16l96 -386q9 -39 14.5 -48t20.5 -9q13 0 19.5 10.5t14.5 46.5l87 407q3 14 11 14z" />
    <glyph glyph-name="x" unicode="x" horiz-adv-x="513" 
d="M405 541h59q16 0 6 -16l-171 -238l195 -272q4 -6 2 -10.5t-9 -4.5h-59q-8 0 -13 8l-159 221l-158 -221q-5 -8 -13 -8h-59q-7 0 -9 4.5t2 10.5l195 272l-171 238q-10 16 6 16h59q8 0 14 -8l134 -188l135 188q5 8 14 8z" />
    <glyph glyph-name="y" unicode="y" horiz-adv-x="581" 
d="M446 541h47q13 0 13 -13v-485q0 -78 -9.5 -121.5t-34.5 -71.5q-24 -29 -65 -40t-114 -11q-77 0 -140 7q-12 2 -12 14v31q0 12 12 12h140q92 0 120 28q30 27 30 104v8q-66 -8 -143 -8q-75 0 -115.5 12t-64.5 44q-23 32 -31.5 81t-8.5 139v257q0 13 12 13h47q13 0 13 -13
v-255q0 -133 26 -174q25 -40 122 -40q76 0 143 9v460q0 13 13 13z" />
    <glyph glyph-name="z" unicode="z" horiz-adv-x="504" 
d="M60 541h387q14 0 14 -13v-14q0 -8 -6 -17l-318 -433h319q13 0 13 -13v-38q0 -13 -13 -13h-409q-14 0 -14 13v19q0 9 7 16l313 428h-293q-14 0 -14 13v39q0 13 14 13z" />
    <glyph glyph-name="braceleft" unicode="{" horiz-adv-x="321" 
d="M230 816q3 0 41 -2q12 -2 12 -13v-40q0 -12 -12 -12h-41q-32 0 -44 -14t-9 -45l28 -263q2 -21 -3.5 -32.5t-23.5 -23.5l-64 -32v-4l64 -32q32 -20 27 -56l-28 -263q-3 -31 9 -45t44 -14h41q12 0 12 -12v-40q0 -11 -12 -13q-38 -2 -41 -2q-77 0 -106.5 29t-22.5 98l27 261
q2 14 -9 18l-76 41q-8 5 -8 18v28q0 13 8 18l76 41q11 4 9 18l-27 261q-7 69 22.5 98t106.5 29z" />
    <glyph glyph-name="bar" unicode="|" horiz-adv-x="253" 
d="M103 797h47q13 0 13 -13v-851q0 -13 -13 -13h-47q-13 0 -13 13v851q0 13 13 13z" />
    <glyph glyph-name="braceright" unicode="}" horiz-adv-x="321" 
d="M92 816q76 0 105.5 -29.5t22.5 -97.5l-27 -261q-1 -14 9 -18l77 -41q7 -4 7 -18v-28q0 -14 -7 -18l-77 -41q-10 -4 -9 -18l27 -261q7 -68 -22.5 -97.5t-105.5 -29.5q-3 0 -41 2q-13 1 -13 13v40q0 12 13 12h41q32 0 43.5 14t8.5 45l-27 263q-5 37 26 56l64 32v4l-64 32
q-18 12 -23.5 23.5t-2.5 32.5l27 263q3 31 -8.5 45t-43.5 14h-41q-13 0 -13 12v40q0 12 13 13q38 2 41 2z" />
    <glyph glyph-name="asciitilde" unicode="~" 
d="M194 426q39 2 118.5 -49t107.5 -49q58 0 84 51q6 13 17 5l30 -19q8 -5 4 -15q-15 -43 -50.5 -69t-82.5 -26q-32 -2 -76 23.5t-84.5 51t-65.5 23.5q-59 0 -81 -52q-6 -12 -16 -5l-30 18q-9 5 -5 15q13 43 48 70t82 27z" />
    <glyph glyph-name="Adieresis" unicode="&#xa1;" horiz-adv-x="238" 
d="M120 546q46 0 46 -47t-46 -47q-47 0 -47 47t47 47zM108 367h23q12 0 13 -13l10 -146q1 -7 1 -19v-372q0 -13 -13 -13h-46q-13 0 -13 13v372q0 12 1 19l11 146q1 13 13 13z" />
    <glyph glyph-name="Aring" unicode="&#xa2;" horiz-adv-x="498" 
d="M429 482h-147q-94 0 -123 -41q-27 -41 -27 -170q0 -131 27 -171q29 -41 123 -41h147q13 0 13 -13v-31q0 -11 -12 -13q-62 -7 -148 -7h-27l-11 -64q-1 -13 -15 -13h-31q-12 0 -11 13l12 69q-83 14 -111 72q-28 57 -28 199q0 163 40 218t170 57l12 65q0 12 14 12h31
q13 0 11 -12l-11 -65q53 -1 103 -7q12 -1 12 -13v-31q0 -13 -13 -13z" />
    <glyph glyph-name="Ccedilla" unicode="&#xa3;" horiz-adv-x="609" 
d="M430 748q55 0 104 -3q12 -1 12 -9v-47q0 -8 -13 -8h-115q-120 0 -167 -29q-46 -28 -46 -114v-215h260q13 0 13 -13v-37q0 -13 -13 -13h-260v-193h356q13 0 13 -12v-42q0 -13 -13 -13h-516q-14 0 -11 13l7 42q1 12 15 12h73v193h-56q-13 0 -13 13v37q0 13 13 13h56v214
q0 126 63 168q64 43 238 43z" />
    <glyph glyph-name="Eacute" unicode="&#xa4;" horiz-adv-x="533" 
d="M67 498l22 23q10 7 19 0l46 -46q44 28 112 28q67 0 113 -28l46 46q9 7 19 0l21 -23q9 -7 1 -18l-46 -45q29 -44 29 -110q0 -67 -29 -111l46 -45q8 -11 -1 -18l-21 -22q-10 -9 -19 0l-46 46q-47 -29 -113 -29q-68 0 -112 29l-46 -46q-9 -9 -19 0l-22 22q-9 7 -1 18l47 45
q-29 44 -29 111q0 66 29 110l-47 45q-8 11 1 18zM266 439q-52 0 -81 -29t-29 -85t29 -85.5t81 -29.5q53 0 81.5 29.5t28.5 85.5q0 114 -110 114z" />
    <glyph glyph-name="Ntilde" unicode="&#xa5;" horiz-adv-x="671" 
d="M580 748h54q20 0 10 -18l-253 -439h142q13 0 13 -13v-30q0 -13 -13 -13h-159v-81h159q13 0 13 -12v-30q0 -13 -13 -13h-159v-86q0 -13 -13 -13h-51q-13 0 -13 13v86h-158q-13 0 -13 13v30q0 12 13 12h158v81h-158q-13 0 -13 13v30q0 13 13 13h141l-253 439q-11 18 9 18
h55q16 0 23 -13l221 -391l222 391q7 13 23 13z" />
    <glyph glyph-name="Odieresis" unicode="&#xa6;" horiz-adv-x="252" 
d="M103 797h47q12 0 12 -13v-360q0 -13 -12 -13h-47q-13 0 -13 13v360q0 13 13 13zM103 306h47q12 0 12 -12v-361q0 -13 -12 -13h-47q-13 0 -13 13v361q0 12 13 12z" />
    <glyph glyph-name="Udieresis" unicode="&#xa7;" horiz-adv-x="439" 
d="M258 759q36 0 74 -7q12 -3 12 -14v-31q0 -12 -13 -12h-101q-98 0 -98 -64v-82l153 -60q95 -35 95 -141v-266q0 -63 -41 -90q-15 -12 -45 -20q-45 -11 -112 -11q-40 0 -74 6q-12 3 -12 14v31q0 13 13 13h101q98 0 98 64v79l-153 59q-95 38 -95 141v270q0 62 40 90
q16 12 46 20q45 11 112 11zM240 434l-108 42v-109q0 -58 68 -85l108 -42v110q0 58 -68 84z" />
    <glyph glyph-name="aacute" unicode="&#xa8;" horiz-adv-x="512" 
d="M170 720q50 0 50 -49q0 -51 -50 -51q-51 0 -51 51q0 49 51 49zM393 671q0 -51 -51 -51t-51 51q0 49 51 49t51 -49z" />
    <glyph glyph-name="agrave" unicode="&#xa9;" horiz-adv-x="867" 
d="M434 -8q-195 0 -286.5 92.5t-91.5 288.5t91.5 288t286.5 92q194 0 285.5 -92t91.5 -288t-91.5 -288.5t-285.5 -92.5zM434 704q-170 0 -249.5 -80t-79.5 -251q0 -169 80 -251q79 -81 249 -81q168 0 248 81q80 82 80 251q0 170 -79.5 250.5t-248.5 80.5zM437 562
q68 0 95 -7q10 -3 10 -11v-36q0 -6 -6 -6h-99q-55 0 -71 -28q-17 -29 -17 -106q0 -78 17 -107q16 -28 71 -28h99q6 0 6 -6v-36q0 -9 -10 -12q-39 -7 -95 -7q-93 0 -125 41t-32 155q0 112 32 153t125 41z" />
    <glyph glyph-name="acircumflex" unicode="&#xaa;" horiz-adv-x="401" 
d="M190 753q72 0 105 -23.5t33 -77.5v-209q0 -12 -13 -15q-40 -10 -125 -10q-71 0 -98.5 19.5t-27.5 73.5v9q0 50 26.5 71.5t84.5 21.5h93v30q0 57 -78 57h-92q-5 0 -5 6v35q0 5 6 6q38 6 91 6zM268 473v91h-87q-32 0 -44.5 -10t-12.5 -35v-2q0 -28 13.5 -39t51.5 -11
q53 0 79 6zM88 356h216q13 0 13 -12v-26q0 -13 -13 -13h-216q-13 0 -13 13v26q0 12 13 12z" />
    <glyph glyph-name="adieresis" unicode="&#xab;" horiz-adv-x="475" 
d="M176 460h46q13 0 13 -13v-6q0 -7 -6 -16l-122 -153l122 -152q6 -8 6 -16v-6q0 -13 -13 -13h-46q-9 0 -15 8l-114 148q-5 8 -5 16v31q0 8 5 16l114 148q5 8 15 8zM357 460h45q13 0 13 -13v-6q0 -7 -6 -16l-122 -153l122 -152q6 -8 6 -16v-6q0 -13 -13 -13h-45q-10 0 -16 8
l-114 148q-5 8 -5 16v31q0 8 5 16l114 148q5 8 16 8z" />
    <glyph glyph-name="atilde" unicode="&#xac;" horiz-adv-x="605" 
d="M65 454h452q13 0 13 -12v-225q0 -13 -13 -13h-42q-13 0 -13 13v170h-397q-13 0 -13 13v42q0 12 13 12z" />
    <glyph glyph-name="aring" unicode="&#xae;" horiz-adv-x="867" 
d="M434 -8q-195 0 -286.5 92.5t-91.5 288.5t91.5 288t286.5 92q194 0 285.5 -92t91.5 -288t-91.5 -288.5t-285.5 -92.5zM434 704q-170 0 -249.5 -80t-79.5 -251q0 -169 80 -251q79 -81 249 -81q168 0 248 81q80 82 80 251q0 170 -79.5 250.5t-248.5 80.5zM433 564
q83 0 115 -26t32 -100q0 -57 -17.5 -83t-61.5 -33l87 -138q4 -7 -4 -7h-59q-9 0 -14 8l-84 133h-56v-135q0 -6 -5 -6h-58q-5 0 -5 6v371q0 5 5 5q57 5 125 5zM426 504h-55v-135h55q51 0 68 13t17 54q0 42 -17 55t-68 13z" />
    <glyph glyph-name="ccedilla" unicode="&#xaf;" horiz-adv-x="513" 
d="M133 690h247q13 0 13 -13v-32q0 -13 -13 -13h-247q-13 0 -13 13v32q0 13 13 13z" />
    <glyph glyph-name="eacute" unicode="&#xb0;" horiz-adv-x="356" 
d="M306 630q0 -124 -128 -124t-128 124q0 123 128 123t128 -123zM106 630q0 -72 72 -72t72 72q0 71 -72 71t-72 -71z" />
    <glyph glyph-name="egrave" unicode="&#xb1;" horiz-adv-x="600" 
d="M279 632h43q13 0 13 -13v-150h183q13 0 13 -13v-43q0 -13 -13 -13h-183v-150q0 -13 -13 -13h-43q-13 0 -13 13v150h-184q-13 0 -13 13v43q0 13 13 13h184v150q0 13 13 13zM82 170h436q13 0 13 -13v-40q0 -12 -13 -12h-436q-13 0 -13 12v40q0 13 13 13z" />
    <glyph glyph-name="ecircumflex" unicode="&#xb2;" horiz-adv-x="343" 
d="M150 902q75 0 112 -21.5t37 -75.5v-40q0 -34 -10.5 -54.5t-43.5 -43.5l-97 -62q-40 -27 -40 -42v-11h194q4 0 4 -3v-50q0 -3 -4 -3h-255q-14 0 -14 15v42q0 27 11.5 43.5t46.5 40.5l114 77q30 21 30 62v13q0 32 -21.5 44.5t-70.5 12.5h-93q-5 0 -5 6v34q0 7 9 10
q39 6 96 6z" />
    <glyph glyph-name="edieresis" unicode="&#xb3;" horiz-adv-x="346" 
d="M156 902q72 0 109.5 -21.5t37.5 -74.5v-29q0 -69 -67 -79q67 -10 67 -80v-29q0 -61 -46 -80q-39 -16 -101 -16q-56 0 -108 6q-10 1 -10 11v33q0 6 5 6h106q48 0 69 11t21 43v13q1 32 -20.5 44.5t-69.5 12.5h-81q-5 0 -5 5v39q0 5 5 5h81q47 0 68.5 12.5t21.5 44.5v13
q0 31 -21 42.5t-69 11.5h-106q-5 0 -5 5v35q0 9 10 10q39 6 108 6z" />
    <glyph glyph-name="iacute" unicode="&#xb4;" horiz-adv-x="399" 
d="M206 748h63q9 0 9 -9v-8q0 -5 -4 -10l-124 -120q-7 -5 -13 -1l-14 11q-7 4 -2 12l74 119q3 6 11 6z" />
    <glyph glyph-name="igrave" unicode="&#xb5;" horiz-adv-x="586" 
d="M452 541h47q13 0 13 -13v-506q0 -7 -2 -9t-11 -4q-81 -14 -202 -14q-109 0 -149 26v-137q0 -13 -13 -13h-47q-13 0 -13 13v644q0 13 14 13h46q13 0 13 -13v-304q0 -114 32 -141q18 -15 39 -19.5t66 -4.5h154v469q0 13 13 13z" />
    <glyph glyph-name="icircumflex" unicode="&#xb6;" horiz-adv-x="687" 
d="M306 753q138 0 208 -49q51 -40 69.5 -115.5t19.5 -214.5v-374h-71v374q0 162 -33 229q-31 67 -123 81v-379h-70q-148 -1 -207 42q-58 43 -60 169v25q2 126 59 169q58 43 208 43z" />
    <glyph glyph-name="idieresis" unicode="&#xb7;" horiz-adv-x="231" 
d="M116 317q46 0 46 -46q0 -48 -46 -48q-48 0 -48 48q0 46 48 46z" />
    <glyph glyph-name="ntilde" unicode="&#xb8;" horiz-adv-x="391" 
d="M219 14h24q11 0 14 -11q14 -56 14 -89q0 -43 -19.5 -59.5t-67.5 -16.5q-27 0 -54 7q-10 4 -10 16v25q0 13 13 13h38q29 0 38 6.5t9 29.5q0 20 -10 64q-3 15 11 15z" />
    <glyph glyph-name="oacute" unicode="&#xb9;" horiz-adv-x="258" 
d="M168 836v-284h64q6 0 6 -6v-45q0 -5 -6 -5h-190q-5 0 -5 5v45q0 6 5 6h66v269q0 29 -36 29h-35q-6 0 -6 6v35q0 5 6 7q21 4 49 4q41 0 61.5 -14t20.5 -52z" />
    <glyph glyph-name="ograve" unicode="&#xba;" horiz-adv-x="414" 
d="M348 586q0 -101 -28 -135q-28 -33 -113 -33q-84 0 -113 33q-28 34 -28 135t28 133q28 34 113 34t113 -34q28 -32 28 -133zM126 586q0 -70 16 -93q17 -23 65 -23q47 0 64 23q16 23 16 93q0 69 -16 91q-15 23 -64 23q-48 0 -65 -23q-16 -22 -16 -91zM99 356h216
q12 0 12 -12v-26q0 -13 -12 -13h-216q-13 0 -13 13v26q0 12 13 12z" />
    <glyph glyph-name="ocircumflex" unicode="&#xbb;" horiz-adv-x="475" 
d="M73 460h46q10 0 15 -8l114 -148q5 -8 5 -16v-31q0 -8 -5 -16l-114 -148q-6 -8 -15 -8h-46q-13 0 -13 13v6q0 8 6 16l122 152l-122 153q-6 9 -6 16v6q0 13 13 13zM253 460h46q10 0 15 -8l114 -148q5 -7 5 -16v-31q0 -9 -5 -16l-114 -148q-6 -8 -15 -8h-46q-13 0 -13 13v6
q0 8 6 16l122 152l-122 153q-6 9 -6 16v6q0 13 13 13z" />
    <glyph glyph-name="odieresis" unicode="&#xbc;" horiz-adv-x="830" 
d="M547 780h27q10 0 6 -15l-340 -781q-8 -14 -20 -14h-28q-14 0 -6 14l341 781q7 15 20 15zM250 395v-45q0 -5 -6 -5h-190q-6 0 -6 5v45q0 6 6 6h65v269q0 17 -8.5 23t-26.5 6h-36q-6 0 -6 6v35q0 6 6 7q21 4 49 4q42 0 62.5 -14t20.5 -52v-284h64q6 0 6 -6zM736 275v-113
h62q6 0 6 -5v-45q0 -5 -6 -5h-62v-101q0 -6 -5 -6h-53q-5 0 -5 6v101h-179q-5 0 -5 5v34q0 7 4 16l70 238q1 4 6 4h53q7 0 4 -6l-69 -236h116v95q0 5 4 6l54 17q2 1 3.5 0t1.5 -5z" />
    <glyph glyph-name="otilde" unicode="&#xbd;" horiz-adv-x="817" 
d="M547 780h27q10 0 6 -15l-340 -781q-8 -14 -20 -14h-28q-14 0 -6 14l341 781q7 15 20 15zM247 395v-45q0 -5 -6 -5h-190q-5 0 -5 5v45q0 6 5 6h66v269q0 29 -36 29h-36q-5 0 -5 6v35q0 5 5 7q23 4 49 4q42 0 62.5 -14t20.5 -52v-284h64q6 0 6 -6zM580 67v-11h194q4 0 4 -3
v-50q0 -3 -4 -3h-255q-14 0 -14 15v43q0 27 12 44t46 39l113 78q31 20 31 62v12q0 32 -22 45t-71 13h-92q-5 0 -5 6v33q0 8 9 11q50 6 96 6q70 1 107.5 -19.5t40.5 -78.5v-40q0 -34 -10.5 -54t-42.5 -43l-97 -63q-40 -24 -40 -42z" />
    <glyph glyph-name="uacute" unicode="&#xbe;" horiz-adv-x="880" 
d="M604 780h27q13 0 6 -15l-340 -781q-8 -14 -19 -14h-29q-14 0 -6 14l342 781q6 15 19 15zM167 751q72 0 109 -21.5t37 -74.5v-29q0 -69 -67 -79q67 -10 67 -80v-29q0 -61 -46 -80q-39 -16 -100 -16q-57 0 -109 6q-10 1 -10 11v33q0 6 5 6h106q49 0 69.5 11t20.5 43v13
q1 32 -20 44.5t-70 12.5h-80q-6 0 -6 5v39q0 5 6 5h80q47 0 68.5 12.5t21.5 44.5v13q0 31 -20.5 42.5t-69.5 11.5h-106q-5 0 -5 6v34q0 9 10 10q39 6 109 6zM619 404h53q7 0 4 -6l-69 -236h116v95q0 5 4 6l54 17q2 1 3.5 0t1.5 -5v-113h62q6 0 6 -5v-45q0 -5 -6 -5h-62v-101
q0 -6 -5 -6h-53q-5 0 -5 6v101h-179q-5 0 -5 5v34q0 7 4 16l70 238q1 4 6 4z" />
    <glyph glyph-name="ugrave" unicode="&#xbf;" horiz-adv-x="492" 
d="M291 499q0 47 47 47t47 -47t-47 -47t-47 47zM311 367h51q7 0 7 -7l4 -66q2 -28 -7.5 -42.5t-43.5 -33.5l-142 -68q-37 -17 -50 -42q-14 -25 -14 -79v-43q0 -74 63 -99q56 -21 146 -21h128q13 0 13 -12v-35q0 -11 -12 -13q-66 -7 -129 -7q-124 0 -199 33q-87 39 -87 154
v43q0 78 23 116q24 37 86 66l105 50q32 15 39 25q9 12 10 36l2 38q0 7 7 7z" />
    <glyph glyph-name="ucircumflex" unicode="&#xc0;" horiz-adv-x="660" 
d="M219 948h64q7 0 10 -6l75 -119q4 -7 -3 -12l-14 -11q-6 -5 -12 1l-124 120q-4 4 -4 10v8q0 9 8 9zM328 753q68 0 88 -19q21 -20 42 -96l171 -624q3 -14 -10 -14h-57q-8 0 -11 13l-65 231h-314l-66 -231q-4 -13 -12 -13h-57q-13 0 -10 14l177 624q21 75 42 95q22 20 82 20
zM328 686q-23 0 -31 -11q-9 -12 -20 -55l-87 -308h278l-83 308q-12 44 -21 55q-8 11 -36 11z" />
    <glyph glyph-name="udieresis" unicode="&#xc1;" horiz-adv-x="660" 
d="M389 948h63q9 0 9 -9v-8q0 -5 -5 -10l-124 -120q-5 -5 -12 -1l-14 11q-7 4 -2 12l74 119q3 6 11 6zM328 753q68 0 88 -19q21 -20 42 -96l171 -624q3 -14 -10 -14h-57q-8 0 -11 13l-65 231h-314l-66 -231q-4 -13 -12 -13h-57q-13 0 -10 14l177 624q21 75 42 95
q22 20 82 20zM328 686q-23 0 -31 -11q-9 -12 -20 -55l-87 -308h278l-83 308q-12 44 -21 55q-8 11 -36 11z" />
    <glyph glyph-name="dagger" unicode="&#xc2;" horiz-adv-x="660" 
d="M313 948h30q10 0 14 -7l89 -118q6 -6 -2 -12l-14 -11q-7 -4 -12 1l-90 80l-89 -80q-7 -5 -13 -1l-13 11q-9 6 -3 12l89 118q4 7 14 7zM328 753q68 0 88 -19q21 -20 42 -96l171 -624q3 -14 -10 -14h-57q-8 0 -11 13l-65 231h-314l-66 -231q-4 -13 -12 -13h-57
q-13 0 -10 14l177 624q21 75 42 95q22 20 82 20zM328 686q-23 0 -31 -11q-9 -12 -20 -55l-87 -308h278l-83 308q-12 44 -21 55q-8 11 -36 11z" />
    <glyph glyph-name="degree" unicode="&#xc3;" horiz-adv-x="660" 
d="M261 927q21 0 69 -23q45 -22 63 -22q19 0 28.5 7.5t18.5 30.5q6 13 16 10l18 -4q14 -6 9 -20q-16 -53 -33.5 -71t-54.5 -18q-24 0 -69 22q-48 23 -62 23q-19 0 -28.5 -8t-19.5 -31q-4 -8 -6.5 -10t-9.5 0l-18 5q-12 4 -9 19q16 52 34 72q17 18 54 18zM328 753
q68 0 88 -19q21 -20 42 -96l171 -624q3 -14 -10 -14h-57q-8 0 -11 13l-65 231h-314l-66 -231q-4 -13 -12 -13h-57q-13 0 -10 14l177 624q21 75 42 95q22 20 82 20zM328 686q-23 0 -31 -11q-9 -12 -20 -55l-87 -308h278l-83 308q-12 44 -21 55q-8 11 -36 11z" />
    <glyph glyph-name="cent" unicode="&#xc4;" horiz-adv-x="660" 
d="M243 920q50 0 50 -49q0 -51 -50 -51q-52 0 -52 51q0 49 52 49zM414 920q51 0 51 -49q0 -51 -51 -51q-50 0 -50 51q0 49 50 49zM328 753q68 0 88 -19q21 -20 42 -96l171 -624q3 -14 -10 -14h-57q-8 0 -11 13l-65 231h-314l-66 -231q-4 -13 -12 -13h-57q-13 0 -10 14
l177 624q21 75 42 95q22 20 82 20zM328 686q-23 0 -31 -11q-9 -12 -20 -55l-87 -308h278l-83 308q-12 44 -21 55q-8 11 -36 11z" />
    <glyph glyph-name="sterling" unicode="&#xc5;" horiz-adv-x="660" 
d="M328 995q101 0 101 -97t-101 -97q-100 0 -100 97t100 97zM390 898q0 62 -62 62t-62 -62t62 -62t62 62zM328 753q68 0 88 -19q21 -20 42 -96l171 -624q3 -14 -10 -14h-57q-8 0 -11 13l-65 231h-314l-66 -231q-4 -13 -12 -13h-57q-13 0 -10 14l177 624q21 75 42 95
q22 20 82 20zM328 686q-23 0 -31 -11q-9 -12 -20 -55l-87 -308h278l-83 308q-12 44 -21 55q-8 11 -36 11z" />
    <glyph glyph-name="section" unicode="&#xc6;" horiz-adv-x="961" 
d="M328 753l219 -5h351q12 0 12 -12v-42q0 -13 -12 -13h-345v-287h309q13 0 13 -12v-42q0 -13 -13 -13h-309v-260h345q12 0 12 -12v-42q0 -13 -12 -13h-406q-15 0 -15 15v229h-306l-66 -231q-3 -13 -11 -13h-57q-13 0 -10 14l177 624q21 75 42 95q22 20 82 20zM477 312v373
h-149q-25 0 -32 -10t-19 -55l-87 -308h287z" />
    <glyph glyph-name="bullet.001" unicode="&#xc7;" horiz-adv-x="587" 
d="M537 686h-179q-74 0 -115 -14.5t-65 -51.5q-23 -37 -31.5 -91.5t-8.5 -154.5t8.5 -154t31.5 -92q24 -37 65 -51.5t115 -14.5h179q13 0 13 -12v-35q0 -13 -12 -13q-63 -7 -174 -7q12 -48 12 -81q0 -43 -19.5 -59.5t-67.5 -16.5q-30 0 -54 7q-10 4 -10 16v25q0 13 13 13h37
q30 0 39 6.5t9 29.5q0 15 -9 61q-148 7 -201 88q-51 81 -51 290q0 174 35 259q30 66 89.5 92t171.5 28q120 0 180 -6q12 -1 12 -14v-34q0 -13 -13 -13z" />
    <glyph glyph-name="paragraph" unicode="&#xc8;" 
d="M220 948h64q7 0 10 -6l75 -119q5 -7 -3 -12l-14 -11q-6 -5 -12 1l-124 120q-4 4 -4 10v8q0 9 8 9zM102 748h452q13 0 13 -12v-42q0 -13 -13 -13h-390v-287h354q13 0 13 -12v-42q0 -13 -13 -13h-354v-260h390q13 0 13 -12v-42q0 -13 -13 -13h-452q-15 0 -15 15v718
q0 15 15 15z" />
    <glyph glyph-name="germandbls" unicode="&#xc9;" 
d="M352 948h64q8 0 8 -9v-8q0 -6 -4 -10l-124 -120q-6 -6 -12 -1l-14 11q-8 5 -3 12l75 119q3 6 10 6zM102 748h452q13 0 13 -12v-42q0 -13 -13 -13h-390v-287h354q13 0 13 -12v-42q0 -13 -13 -13h-354v-260h390q13 0 13 -12v-42q0 -13 -13 -13h-452q-15 0 -15 15v718
q0 15 15 15z" />
    <glyph glyph-name="registered" unicode="&#xca;" 
d="M304 948h30q10 0 14 -7l89 -118q6 -6 -2 -12l-14 -11q-6 -4 -13 1l-89 80l-89 -80q-7 -5 -13 -1l-14 11q-8 6 -2 12l89 118q4 7 14 7zM102 748h452q13 0 13 -12v-42q0 -13 -13 -13h-390v-287h354q13 0 13 -12v-42q0 -13 -13 -13h-354v-260h390q13 0 13 -12v-42
q0 -13 -13 -13h-452q-15 0 -15 15v718q0 15 15 15z" />
    <glyph glyph-name="copyright" unicode="&#xcb;" 
d="M234 920q49 0 49 -49q0 -51 -49 -51q-52 0 -52 51q0 49 52 49zM405 920q51 0 51 -49q0 -51 -51 -51q-50 0 -50 51q0 49 50 49zM102 748h452q13 0 13 -12v-42q0 -13 -13 -13h-390v-287h354q13 0 13 -12v-42q0 -13 -13 -13h-354v-260h390q13 0 13 -12v-42q0 -13 -13 -13
h-452q-15 0 -15 15v718q0 15 15 15z" />
    <glyph glyph-name="trademark" unicode="&#xcc;" horiz-adv-x="250" 
d="M5 948h64q7 0 10 -6l75 -119q4 -7 -3 -12l-14 -11q-6 -5 -12 1l-124 120q-5 5 -5 10v8q0 9 9 9zM99 748h51q13 0 13 -12v-723q0 -13 -13 -13h-51q-12 0 -12 13v723q0 12 12 12z" />
    <glyph glyph-name="acute" unicode="&#xcd;" horiz-adv-x="251" 
d="M181 948h63q9 0 9 -9v-8q0 -5 -5 -10l-124 -120q-5 -5 -12 -1l-14 11q-7 4 -2 12l74 119q3 6 11 6zM100 748h51q13 0 13 -12v-723q0 -13 -13 -13h-51q-13 0 -13 13v723q0 12 13 12z" />
    <glyph glyph-name="dieresis" unicode="&#xce;" horiz-adv-x="250" 
d="M108 948h30q10 0 14 -7l89 -118q6 -6 -2 -12l-14 -11q-6 -4 -13 1l-89 80l-89 -80q-7 -5 -13 -1l-14 11q-8 6 -2 12l89 118q4 7 14 7zM99 748h51q13 0 13 -12v-723q0 -13 -13 -13h-51q-12 0 -12 13v723q0 12 12 12z" />
    <glyph glyph-name="notequal" unicode="&#xcf;" horiz-adv-x="250" 
d="M38 920q50 0 50 -49q0 -51 -50 -51q-51 0 -51 51q0 49 51 49zM210 920q50 0 50 -49q0 -51 -50 -51q-51 0 -51 51q0 49 51 49zM99 748h51q13 0 13 -12v-723q0 -13 -13 -13h-51q-12 0 -12 13v723q0 12 12 12z" />
    <glyph glyph-name="AE" unicode="&#xd0;" horiz-adv-x="741" 
d="M379 753q167 0 235 -86q67 -85 67 -292q0 -208 -67 -294q-68 -86 -235 -86q-154 0 -271 5q-13 1 -13 13v329h-72q-13 0 -13 13v32q0 13 13 13h72v335q0 12 13 13q88 5 271 5zM172 342v-280h207q126 0 176 71t50 242q0 169 -53 240t-185 71h-195v-286h169q12 0 12 -13v-32
q0 -13 -12 -13h-169z" />
    <glyph glyph-name="Oslash" unicode="&#xd1;" horiz-adv-x="763" 
d="M315 927q21 0 69 -23q45 -22 62 -22q20 0 29.5 7.5t18.5 31.5q7 12 16 9l18 -4q13 -4 9 -19q-16 -54 -33.5 -71.5t-54.5 -17.5q-24 0 -69 22t-62 22q-19 0 -28.5 -8t-19.5 -31q-4 -8 -6.5 -10t-9.5 0l-18 5q-13 4 -9 19q16 52 34 72q17 18 54 18zM613 748h51q12 0 12 -12
v-723q0 -13 -12 -13h-49q-17 0 -28 15l-423 634v-636q0 -13 -13 -13h-51q-13 0 -13 13v723q0 12 13 12h54q21 0 29 -4t18 -19l399 -598v609q0 12 13 12z" />
    <glyph glyph-name="infinity" unicode="&#xd2;" horiz-adv-x="717" 
d="M228 948h63q8 0 11 -6l74 -119q5 -8 -2 -12l-14 -11q-6 -4 -13 1l-124 120q-4 5 -4 10v8q0 9 9 9zM358 753q138 0 208 -49q51 -40 69.5 -115.5t19.5 -215.5q0 -117 -13 -185.5t-46 -113.5q-33 -44 -88 -61.5t-150 -17.5t-149.5 17.5t-87.5 61.5q-33 45 -46 113.5
t-13 185.5q0 175 35 260q30 66 89.5 92t171.5 28zM471 672q-44 14 -113 14t-113 -14q-81 -28 -98 -147q-8 -59 -8 -152t8 -152q18 -118 98 -146q40 -13 113 -13t113 13q81 28 99 146q8 59 8 152t-8 152q-18 119 -99 147z" />
    <glyph glyph-name="plusminus" unicode="&#xd3;" horiz-adv-x="717" 
d="M401 948h63q9 0 9 -9v-8q0 -5 -4 -10l-124 -120q-7 -5 -13 -1l-14 11q-7 4 -2 12l74 119q3 6 11 6zM358 753q138 0 208 -49q51 -40 69.5 -115.5t19.5 -215.5q0 -117 -13 -185.5t-46 -113.5q-33 -44 -88 -61.5t-150 -17.5t-149.5 17.5t-87.5 61.5q-33 45 -46 113.5
t-13 185.5q0 175 35 260q30 66 89.5 92t171.5 28zM471 672q-44 14 -113 14t-113 -14q-81 -28 -98 -147q-8 -59 -8 -152t8 -152q18 -118 98 -146q40 -13 113 -13t113 13q81 28 99 146q8 59 8 152t-8 152q-18 119 -99 147z" />
    <glyph glyph-name="lessequal.001" unicode="&#xd4;" horiz-adv-x="717" 
d="M343 948h30q10 0 14 -7l90 -118q5 -6 -3 -12l-14 -11q-6 -5 -12 1l-90 80l-89 -80q-6 -6 -12 -1l-14 11q-7 5 -3 12l90 118q4 7 13 7zM358 753q138 0 208 -49q51 -40 69.5 -115.5t19.5 -215.5q0 -117 -13 -185.5t-46 -113.5q-33 -44 -88 -61.5t-150 -17.5t-149.5 17.5
t-87.5 61.5q-33 45 -46 113.5t-13 185.5q0 175 35 260q30 66 89.5 92t171.5 28zM471 672q-44 14 -113 14t-113 -14q-81 -28 -98 -147q-8 -59 -8 -152t8 -152q18 -118 98 -146q40 -13 113 -13t113 13q81 28 99 146q8 59 8 152t-8 152q-18 119 -99 147z" />
    <glyph glyph-name="greaterequal.001" unicode="&#xd5;" horiz-adv-x="717" 
d="M291 927q21 0 69 -23q45 -22 63 -22q19 0 28.5 7.5t18.5 30.5q6 13 16 10l18 -4q12 -4 10 -20q-16 -52 -34 -71q-16 -18 -54 -18q-25 0 -70 22q-48 23 -62 23q-19 0 -28.5 -8t-18.5 -31q-6 -13 -16 -10l-18 5q-13 4 -10 19q16 54 34 72t54 18zM358 753q138 0 208 -49
q51 -40 69.5 -115.5t19.5 -215.5q0 -117 -13 -185.5t-46 -113.5q-33 -44 -88 -61.5t-150 -17.5t-149.5 17.5t-87.5 61.5q-33 45 -46 113.5t-13 185.5q0 175 35 260q30 66 89.5 92t171.5 28zM471 672q-44 14 -113 14t-113 -14q-81 -28 -98 -147q-8 -59 -8 -152t8 -152
q18 -118 98 -146q40 -13 113 -13t113 13q81 28 99 146q8 59 8 152t-8 152q-18 119 -99 147z" />
    <glyph glyph-name="yen" unicode="&#xd6;" horiz-adv-x="717" 
d="M273 920q50 0 50 -49q0 -51 -50 -51q-51 0 -51 51q0 49 51 49zM445 920q50 0 50 -49q0 -51 -50 -51q-51 0 -51 51q0 49 51 49zM358 753q138 0 208 -49q51 -40 69.5 -115.5t19.5 -215.5q0 -117 -13 -185.5t-46 -113.5q-33 -44 -88 -61.5t-150 -17.5t-149.5 17.5
t-87.5 61.5q-33 45 -46 113.5t-13 185.5q0 175 35 260q30 66 89.5 92t171.5 28zM471 672q-44 14 -113 14t-113 -14q-81 -28 -98 -147q-8 -59 -8 -152t8 -152q18 -118 98 -146q40 -13 113 -13t113 13q81 28 99 146q8 59 8 152t-8 152q-18 119 -99 147z" />
    <glyph glyph-name="mu" unicode="&#xd7;" horiz-adv-x="503" 
d="M406 492l31 -30q9 -9 0 -18l-138 -138l138 -137q9 -9 0 -19l-30 -30q-11 -8 -18 0l-138 138l-137 -138q-10 -7 -19 0l-29 30q-9 10 -1 19l138 137l-137 138q-9 9 -1 18l31 30q10 10 18 0l137 -137l137 137q10 10 18 0z" />
    <glyph glyph-name="partialdiff.001" unicode="&#xd8;" horiz-adv-x="717" 
d="M358 753q140 0 202 -46l26 37q9 12 18 3l30 -20q10 -6 2 -17l-33 -47q52 -79 52 -290q0 -117 -13 -185.5t-46 -113.5q-33 -44 -88 -61.5t-150 -17.5q-136 0 -197 42l-31 -44q-8 -12 -17 -3l-30 20q-11 8 -3 18l36 52q-54 78 -54 293q0 175 35 260q30 66 89.5 92t171.5 28
zM358 686q-73 0 -114 -14.5t-65 -52.5q-23 -37 -31.5 -91.5t-8.5 -154.5q0 -161 27 -222l350 494q-47 41 -158 41zM552 590l-347 -491q46 -37 153 -37q74 0 115 14t64 51q24 38 32.5 92t8.5 154q0 154 -26 217z" />
    <glyph glyph-name="summation" unicode="&#xd9;" horiz-adv-x="738" 
d="M252 948h64q7 0 10 -6l75 -119q5 -7 -3 -12l-14 -11q-6 -5 -12 1l-124 120q-5 5 -5 10v8q0 9 9 9zM594 748h51q13 0 13 -12v-363q0 -121 -12.5 -189.5t-45.5 -112.5q-33 -43 -86 -59.5t-145 -16.5t-145 16.5t-86 59.5q-33 44 -45.5 112.5t-12.5 189.5v363q0 12 12 12h51
q13 0 13 -12v-363q0 -99 9.5 -155.5t33.5 -92.5t63 -49.5t107 -13.5t107 13.5t63 49.5t33.5 92.5t9.5 155.5v363q0 8 2 10t10 2z" />
    <glyph glyph-name="product" unicode="&#xda;" horiz-adv-x="738" 
d="M414 948h63q9 0 9 -9v-8q0 -6 -4 -10l-124 -120q-6 -6 -12 -1l-14 11q-8 5 -3 12l74 119q3 6 11 6zM594 748h51q13 0 13 -12v-363q0 -121 -12.5 -189.5t-45.5 -112.5q-33 -43 -86 -59.5t-145 -16.5t-145 16.5t-86 59.5q-33 44 -45.5 112.5t-12.5 189.5v363q0 12 12 12h51
q13 0 13 -12v-363q0 -99 9.5 -155.5t33.5 -92.5t63 -49.5t107 -13.5t107 13.5t63 49.5t33.5 92.5t9.5 155.5v363q0 8 2 10t10 2z" />
    <glyph glyph-name="pi.001" unicode="&#xdb;" horiz-adv-x="738" 
d="M354 948h30q10 0 14 -7l89 -118q6 -6 -3 -12l-13 -11q-8 -4 -13 1l-89 80l-90 -80q-5 -5 -12 -1l-14 11q-8 6 -2 12l89 118q4 7 14 7zM594 748h51q13 0 13 -12v-363q0 -121 -12.5 -189.5t-45.5 -112.5q-33 -43 -86 -59.5t-145 -16.5t-145 16.5t-86 59.5
q-33 44 -45.5 112.5t-12.5 189.5v363q0 12 12 12h51q13 0 13 -12v-363q0 -99 9.5 -155.5t33.5 -92.5t63 -49.5t107 -13.5t107 13.5t63 49.5t33.5 92.5t9.5 155.5v363q0 8 2 10t10 2z" />
    <glyph glyph-name="integral" unicode="&#xdc;" horiz-adv-x="738" 
d="M283 920q50 0 50 -49q0 -51 -50 -51q-51 0 -51 51q0 49 51 49zM506 871q0 -51 -51 -51t-51 51q0 49 51 49t51 -49zM594 748h51q13 0 13 -12v-363q0 -121 -12.5 -189.5t-45.5 -112.5q-33 -43 -86 -59.5t-145 -16.5t-145 16.5t-86 59.5q-33 44 -45.5 112.5t-12.5 189.5v363
q0 12 12 12h51q13 0 13 -12v-363q0 -99 9.5 -155.5t33.5 -92.5t63 -49.5t107 -13.5t107 13.5t63 49.5t33.5 92.5t9.5 155.5v363q0 8 2 10t10 2z" />
    <glyph glyph-name="ordfeminine" unicode="&#xdd;" horiz-adv-x="638" 
d="M366 948h64q8 0 8 -9v-8q0 -6 -4 -10l-124 -120q-6 -6 -12 -1l-14 11q-8 5 -3 12l75 119q3 6 10 6zM563 748h55q20 0 10 -18l-271 -508v-209q0 -13 -12 -13h-51q-13 0 -13 13v209l-270 508q-11 18 9 18h55q15 0 22 -13l222 -427l222 427q7 13 22 13z" />
    <glyph glyph-name="ordmasculine" unicode="&#xde;" horiz-adv-x="627" 
d="M100 749h50q13 0 13 -13v-125q22 0 51 0.5t44.5 1t24.5 0.5q139 0 203 -24q55 -22 75.5 -69t23.5 -146q0 -118 -41 -173q-20 -28 -58 -41q-64 -24 -203 -24q-9 0 -24.5 0.5t-44.5 1t-51 0.5v-125q0 -12 -13 -12h-50q-13 0 -13 12v723q0 13 13 13zM277 546h-114v-343h114
q110 0 160 15q41 16 55 49t17 107q0 62 -10 94.5t-39 49.5q-31 19 -69 23q-43 5 -114 5z" />
    <glyph glyph-name="Omega.001" unicode="&#xdf;" horiz-adv-x="585" 
d="M283 753q123 0 176 -44t53 -163q0 -147 -82 -166v-3q102 -19 102 -179q0 -117 -59 -161q-59 -42 -182 -42q-26 0 -85 4q-15 0 -12 14l12 38q3 11 14 11h75q90 0 127.5 29t37.5 107q0 82 -37 113.5t-118 31.5h-79q-13 0 -13 13v39q0 12 13 12h79q66 0 101 26q34 27 34 108
q0 87 -35 116t-122 29q-78 0 -107 -32q-28 -31 -28 -123v-518q0 -13 -13 -13h-47q-13 0 -13 13v509q0 135 43 182q43 49 165 49z" />
    <glyph glyph-name="ae" unicode="&#xe0;" horiz-adv-x="524" 
d="M157 748h63q8 0 11 -6l74 -119q5 -7 -3 -12l-13 -11q-6 -4 -13 1l-124 120q-4 4 -4 10v8q0 9 9 9zM233 546q111 0 165.5 -36.5t54.5 -118.5v-350q0 -19 -18 -26q-54 -20 -213 -20q-102 0 -142 33q-41 35 -41 125q0 79 40 113.5t127 34.5h175v79q0 54 -35.5 78t-112.5 24
h-135q-13 0 -13 13v28q0 11 12 14q62 9 136 9zM381 71v167h-175q-50 0 -72.5 -19.5t-22.5 -65.5q0 -55 27.5 -75t99.5 -20q95 0 143 13z" />
    <glyph glyph-name="oslash" unicode="&#xe1;" horiz-adv-x="524" 
d="M279 748h63q9 0 9 -9v-8q0 -6 -4 -10l-124 -120q-7 -5 -13 -1l-14 11q-7 4 -2 12l74 119q3 6 11 6zM233 546q111 0 165.5 -36.5t54.5 -118.5v-350q0 -19 -18 -26q-54 -20 -213 -20q-102 0 -142 33q-41 35 -41 125q0 79 40 113.5t127 34.5h175v79q0 54 -35.5 78t-112.5 24
h-135q-13 0 -13 13v28q0 11 12 14q62 9 136 9zM381 71v167h-175q-50 0 -72.5 -19.5t-22.5 -65.5q0 -55 27.5 -75t99.5 -20q95 0 143 13z" />
    <glyph glyph-name="questiondown" unicode="&#xe2;" horiz-adv-x="524" 
d="M240 748h30q10 0 14 -7l89 -118q6 -6 -2 -12l-14 -11q-6 -5 -12 1l-90 80l-89 -80q-6 -6 -12 -1l-14 11q-8 5 -3 12l90 118q3 7 13 7zM233 546q111 0 165.5 -36.5t54.5 -118.5v-350q0 -19 -18 -26q-54 -20 -213 -20q-102 0 -142 33q-41 35 -41 125q0 79 40 113.5
t127 34.5h175v79q0 54 -35.5 78t-112.5 24h-135q-13 0 -13 13v28q0 11 12 14q62 9 136 9zM381 71v167h-175q-50 0 -72.5 -19.5t-22.5 -65.5q0 -55 27.5 -75t99.5 -20q95 0 143 13z" />
    <glyph glyph-name="exclamdown" unicode="&#xe3;" horiz-adv-x="524" 
d="M188 727q21 0 69 -23q45 -22 63 -22q19 0 28.5 7.5t18.5 30.5q6 13 16 10l18 -4q13 -4 10 -20q-16 -52 -35 -71q-16 -18 -54 -18q-24 0 -69 22q-48 23 -62 23q-19 0 -28.5 -8t-19.5 -31q-4 -13 -15 -10l-19 5q-12 4 -9 19q16 54 34 72t54 18zM233 546q111 0 165.5 -36.5
t54.5 -118.5v-350q0 -19 -18 -26q-54 -20 -213 -20q-102 0 -142 33q-41 35 -41 125q0 79 40 113.5t127 34.5h175v79q0 54 -35.5 78t-112.5 24h-135q-13 0 -13 13v28q0 11 12 14q62 9 136 9zM381 71v167h-175q-50 0 -72.5 -19.5t-22.5 -65.5q0 -55 27.5 -75t99.5 -20
q95 0 143 13z" />
    <glyph glyph-name="logicalnot" unicode="&#xe4;" horiz-adv-x="524" 
d="M170 720q50 0 50 -49q0 -51 -50 -51q-52 0 -52 51q0 49 52 49zM341 720q51 0 51 -49q0 -51 -51 -51q-50 0 -50 51q0 49 50 49zM233 546q111 0 165.5 -36.5t54.5 -118.5v-350q0 -19 -18 -26q-54 -20 -213 -20q-102 0 -142 33q-41 35 -41 125q0 79 40 113.5t127 34.5h175
v79q0 54 -35.5 78t-112.5 24h-135q-13 0 -13 13v28q0 11 12 14q62 9 136 9zM381 71v167h-175q-50 0 -72.5 -19.5t-22.5 -65.5q0 -55 27.5 -75t99.5 -20q95 0 143 13z" />
    <glyph glyph-name="radical.001" unicode="&#xe5;" horiz-adv-x="524" 
d="M255 795q101 0 101 -97t-101 -97q-100 0 -100 97t100 97zM317 698q0 62 -62 62t-62 -62t62 -62t62 62zM233 546q111 0 165.5 -36.5t54.5 -118.5v-350q0 -19 -18 -26q-54 -20 -213 -20q-102 0 -142 33q-41 35 -41 125q0 79 40 113.5t127 34.5h175v79q0 54 -35.5 78
t-112.5 24h-135q-13 0 -13 13v28q0 11 12 14q62 9 136 9zM381 71v167h-175q-50 0 -72.5 -19.5t-22.5 -65.5q0 -55 27.5 -75t99.5 -20q95 0 143 13z" />
    <glyph glyph-name="florin.001" unicode="&#xe6;" horiz-adv-x="858" 
d="M599 546q129 0 169 -51q43 -52 44 -206v-29q0 -15 -5.5 -20t-25.5 -5h-327q2 -107 30 -141q29 -35 115 -35h157q13 0 13 -13v-31q0 -11 -12 -13q-62 -7 -158 -7q-52 0 -99 12.5t-70 33.5q-73 -46 -207 -46q-101 0 -143 33q-41 35 -41 125q0 79 40 113.5t128 34.5h174v79
q0 54 -35.5 78t-111.5 24h-136q-12 0 -12 13v28q0 11 11 14q62 9 137 9q140 0 188 -59q23 32 64 45.5t113 13.5zM599 482q-89 0 -116 -36q-28 -35 -29 -146h286q-1 112 -29 147q-26 35 -112 35zM381 238h-174q-50 0 -72.5 -19.5t-22.5 -65.5q0 -54 27 -74.5t99 -20.5
q32 0 85 8q50 9 79 26q-21 49 -21 146z" />
    <glyph glyph-name="approxequal" unicode="&#xe7;" horiz-adv-x="475" 
d="M426 482h-147q-94 0 -123 -41q-27 -41 -27 -170q0 -131 27 -171q29 -41 123 -41h147q13 0 13 -13v-31q0 -11 -12 -13q-59 -6 -123 -7q12 -48 12 -81q0 -43 -20 -59.5t-67 -16.5q-30 0 -54 7q-11 5 -11 16v25q0 13 13 13h38q30 0 39 6.5t9 29.5q0 19 -10 60
q-121 5 -158 60q-38 56 -38 216q0 167 42 221q43 54 180 54q96 0 148 -7q12 -1 12 -13v-31q0 -13 -13 -13z" />
    <glyph glyph-name="increment" unicode="&#xe8;" horiz-adv-x="534" 
d="M160 748h64q7 0 10 -6l75 -119q5 -7 -3 -12l-14 -11q-6 -5 -12 1l-124 120q-4 4 -4 10v8q0 9 8 9zM275 546q128 0 169 -51q43 -52 44 -206v-29q0 -15 -5.5 -20t-25.5 -5h-327q2 -107 30 -141q29 -35 115 -35h157q13 0 13 -13v-31q0 -11 -12 -13q-62 -7 -158 -7
q-72 0 -112.5 12t-64.5 44q-23 32 -32 81.5t-9 138.5q0 166 41 221q42 54 177 54zM275 482q-89 0 -116 -36q-28 -35 -29 -146h285q-1 111 -28 147q-26 35 -112 35z" />
    <glyph glyph-name="guillemotleft" unicode="&#xe9;" horiz-adv-x="534" 
d="M309 748h63q9 0 9 -9v-8q0 -6 -4 -10l-124 -120q-5 -6 -13 -1l-13 11q-7 5 -3 12l74 119q3 6 11 6zM275 546q128 0 169 -51q43 -52 44 -206v-29q0 -15 -5.5 -20t-25.5 -5h-327q2 -107 30 -141q29 -35 115 -35h157q13 0 13 -13v-31q0 -11 -12 -13q-62 -7 -158 -7
q-72 0 -112.5 12t-64.5 44q-23 32 -32 81.5t-9 138.5q0 166 41 221q42 54 177 54zM275 482q-89 0 -116 -36q-28 -35 -29 -146h285q-1 111 -28 147q-26 35 -112 35z" />
    <glyph glyph-name="guillemotright" unicode="&#xea;" horiz-adv-x="534" 
d="M258 748h30q10 0 14 -7l89 -118q6 -6 -2 -12l-14 -11q-6 -4 -13 1l-89 80l-89 -80q-7 -5 -13 -1l-14 11q-8 6 -2 12l89 118q4 7 14 7zM275 546q128 0 169 -51q43 -52 44 -206v-29q0 -15 -5.5 -20t-25.5 -5h-327q2 -107 30 -141q29 -35 115 -35h157q13 0 13 -13v-31
q0 -11 -12 -13q-62 -7 -158 -7q-72 0 -112.5 12t-64.5 44q-23 32 -32 81.5t-9 138.5q0 166 41 221q42 54 177 54zM275 482q-89 0 -116 -36q-28 -35 -29 -146h285q-1 111 -28 147q-26 35 -112 35z" />
    <glyph glyph-name="ellipsis" unicode="&#xeb;" horiz-adv-x="534" 
d="M188 720q49 0 49 -49q0 -51 -49 -51q-52 0 -52 51q0 49 52 49zM359 720q51 0 51 -49q0 -51 -51 -51q-50 0 -50 51q0 49 50 49zM275 546q128 0 169 -51q43 -52 44 -206v-29q0 -15 -5.5 -20t-25.5 -5h-327q2 -107 30 -141q29 -35 115 -35h157q13 0 13 -13v-31
q0 -11 -12 -13q-62 -7 -158 -7q-72 0 -112.5 12t-64.5 44q-23 32 -32 81.5t-9 138.5q0 166 41 221q42 54 177 54zM275 482q-89 0 -116 -36q-28 -35 -29 -146h285q-1 111 -28 147q-26 35 -112 35z" />
    <glyph glyph-name="nbspace" unicode="&#xec;" horiz-adv-x="222" 
d="M-11 748h63q8 0 11 -6l74 -119q5 -7 -3 -12l-13 -11q-7 -5 -13 1l-124 120q-4 4 -4 10v8q0 9 9 9zM87 541h47q13 0 13 -13v-515q0 -13 -13 -13h-47q-12 0 -12 13v515q0 13 12 13z" />
    <glyph glyph-name="Agrave" unicode="&#xed;" horiz-adv-x="222" 
d="M168 748h64q8 0 8 -9v-8q0 -6 -4 -10l-124 -120q-6 -6 -12 -1l-14 11q-8 5 -3 12l75 119q3 6 10 6zM87 541h47q13 0 13 -13v-515q0 -13 -13 -13h-47q-12 0 -12 13v515q0 13 12 13z" />
    <glyph glyph-name="Atilde" unicode="&#xee;" horiz-adv-x="223" 
d="M96 748h30q10 0 14 -7l89 -118q6 -6 -3 -12l-13 -11q-7 -5 -13 1l-89 80l-90 -80q-5 -5 -12 -1l-14 11q-8 6 -2 12l89 118q4 7 14 7zM135 0h-47q-13 0 -13 13v515q0 13 13 13h47q13 0 13 -13v-515q0 -13 -13 -13z" />
    <glyph glyph-name="Otilde" unicode="&#xef;" horiz-adv-x="223" 
d="M26 720q49 0 49 -49q0 -51 -49 -51q-52 0 -52 51q0 49 52 49zM197 720q51 0 51 -49q0 -51 -51 -51q-50 0 -50 51q0 49 50 49zM88 541h47q13 0 13 -13v-515q0 -13 -13 -13h-47q-13 0 -13 13v515q0 13 13 13z" />
    <glyph glyph-name="OE" unicode="&#xf0;" horiz-adv-x="557" 
d="M219 748h51q10 0 15 -9l32 -53l93 33q11 7 16 -7l9 -24q5 -12 -7 -16l-85 -30l132 -223q27 -45 27 -174q1 -114 -23 -166t-88 -73q-44 -11 -112 -11q-72 0 -113 11.5t-67 40.5q-25 29 -34 75t-9 123t9 122q14 72 62.5 100t151.5 28q45 0 76 -6l-77 129l-88 -31
q-13 -4 -16 8l-9 23q-4 13 7 16l80 29l-42 69q-9 16 9 16zM129 245q0 -113 28 -150q28 -36 122 -36q93 0 122 36q28 37 28 150t-28 148q-27 37 -122 37t-123 -37q-27 -36 -27 -148z" />
    <glyph glyph-name="oe.001" unicode="&#xf1;" horiz-adv-x="582" 
d="M226 727q21 0 69 -23q45 -22 62 -22q20 0 29 7.5t19 30.5q4 8 6.5 10t8.5 0l19 -4q14 -6 9 -20q-16 -52 -34 -71q-16 -18 -54 -18q-24 0 -69 22q-48 23 -63 23q-19 0 -28 -8t-19 -31q-6 -13 -16 -10l-18 5q-13 4 -9 19q16 54 33.5 72t54.5 18zM289 546q45 0 74 -3
q71 -5 99 -33q49 -45 49 -192v-305q0 -13 -15 -13h-45q-13 0 -13 13v305q0 113 -32 140q-18 15 -39 19.5t-66 4.5h-155v-469q0 -13 -12 -13h-47q-13 0 -13 13v506q0 12 13 13q81 14 202 14z" />
    <glyph glyph-name="endash.001" unicode="&#xf2;" horiz-adv-x="559" 
d="M155 748h64q7 0 10 -6l75 -119q4 -7 -3 -12l-14 -11q-6 -5 -12 1l-124 120q-5 5 -5 10v8q0 9 9 9zM502 271q0 -91 -9 -139.5t-34 -80.5q-24 -32 -64.5 -44t-115.5 -12q-137 0 -180 54q-42 55 -42 222t42 221q43 54 180 54t180 -54q43 -53 43 -221zM279 482
q-94 0 -123 -41q-27 -41 -27 -170q0 -131 27 -171q29 -41 123 -41q96 0 123 41q28 40 28 171q0 130 -28 170q-27 41 -123 41z" />
    <glyph glyph-name="emdash.001" unicode="&#xf3;" horiz-adv-x="559" 
d="M329 748h63q9 0 9 -9v-8q0 -5 -4 -10l-124 -120q-7 -5 -13 -1l-14 11q-7 4 -2 12l74 119q3 6 11 6zM502 271q0 -91 -9 -139.5t-34 -80.5q-24 -32 -64.5 -44t-115.5 -12q-137 0 -180 54q-42 55 -42 222t42 221q43 54 180 54t180 -54q43 -53 43 -221zM279 482
q-94 0 -123 -41q-27 -41 -27 -170q0 -131 27 -171q29 -41 123 -41q96 0 123 41q28 40 28 171q0 130 -28 170q-27 41 -123 41z" />
    <glyph glyph-name="quotedblleft" unicode="&#xf4;" horiz-adv-x="559" 
d="M265 748h29q10 0 14 -7l90 -118q4 -6 -3 -12l-14 -11q-6 -5 -12 1l-90 80l-89 -80q-6 -6 -12 -1l-14 11q-8 6 -3 12l90 118q4 7 14 7zM502 271q0 -91 -9 -139.5t-34 -80.5q-24 -32 -64.5 -44t-115.5 -12q-137 0 -180 54q-42 55 -42 222t42 221q43 54 180 54t180 -54
q43 -53 43 -221zM279 482q-94 0 -123 -41q-27 -41 -27 -170q0 -131 27 -171q29 -41 123 -41q96 0 123 41q28 40 28 171q0 130 -28 170q-27 41 -123 41z" />
    <glyph glyph-name="quotedblright.001" unicode="&#xf5;" horiz-adv-x="559" 
d="M213 727q20 0 68 -23q45 -22 63 -22q19 0 28.5 7.5t18.5 30.5q6 13 16 10l18 -4q13 -4 10 -20q-16 -52 -34 -71q-17 -18 -54 -18q-25 0 -70 22q-48 23 -62 23q-19 0 -28.5 -8t-18.5 -31q-6 -13 -16 -10l-18 5q-13 4 -10 19q16 54 34 72t55 18zM502 271q0 -91 -9 -139.5
t-34 -80.5q-24 -32 -64.5 -44t-115.5 -12q-137 0 -180 54q-42 55 -42 222t42 221q43 54 180 54t180 -54q43 -53 43 -221zM279 482q-94 0 -123 -41q-27 -41 -27 -170q0 -131 27 -171q29 -41 123 -41q96 0 123 41q28 40 28 171q0 130 -28 170q-27 41 -123 41z" />
    <glyph glyph-name="quoteleft" unicode="&#xf6;" horiz-adv-x="559" 
d="M194 720q50 0 50 -49q0 -51 -50 -51q-51 0 -51 51q0 49 51 49zM366 720q50 0 50 -49q0 -51 -50 -51q-51 0 -51 51q0 49 51 49zM502 271q0 -91 -9 -139.5t-34 -80.5q-24 -32 -64.5 -44t-115.5 -12q-137 0 -180 54q-42 55 -42 222t42 221q43 54 180 54t180 -54
q43 -53 43 -221zM279 482q-94 0 -123 -41q-27 -41 -27 -170q0 -131 27 -171q29 -41 123 -41q96 0 123 41q28 40 28 171q0 130 -28 170q-27 41 -123 41z" />
    <glyph glyph-name="quoteright.001" unicode="&#xf7;" horiz-adv-x="577" 
d="M336 460q0 -48 -47 -48t-47 48q0 46 47 46t47 -46zM72 342h433q13 0 13 -12v-43q0 -13 -13 -13h-433q-13 0 -13 13v43q0 12 13 12zM336 158q0 -48 -47 -48t-47 48q0 46 47 46t47 -46z" />
    <glyph glyph-name="divide" unicode="&#xf8;" horiz-adv-x="559" 
d="M279 546q91 0 137 -23l16 23q9 12 17 4l30 -21q11 -6 3 -17l-18 -26q38 -56 38 -215q0 -91 -9 -139.5t-34 -80.5q-24 -32 -64.5 -44t-115.5 -12q-98 0 -144 26l-19 -27q-8 -12 -17 -3l-30 20q-11 8 -3 17l24 35q-33 55 -33 208q0 167 42 221q43 54 180 54zM279 482
q-94 0 -123 -41q-27 -41 -27 -170q0 -95 12 -135l233 328q-30 18 -95 18zM415 417l-238 -337q31 -21 102 -21q96 0 123 41q28 40 28 171q0 105 -15 146z" />
    <glyph glyph-name="lozenge" unicode="&#xf9;" horiz-adv-x="582" 
d="M174 748h63q8 0 11 -6l74 -119q4 -7 -3 -12l-14 -11q-6 -5 -12 1l-124 120q-4 4 -4 10v8q0 9 9 9zM448 541h47q13 0 13 -13v-506q0 -7 -2 -9t-11 -4q-81 -14 -202 -14q-72 0 -107.5 7t-64.5 29q-28 23 -39 67t-11 125v305q0 13 14 13h46q13 0 13 -13v-304q0 -114 32 -141
q18 -15 39 -19.5t66 -4.5h154v469q0 13 13 13z" />
    <glyph glyph-name="ydieresis" unicode="&#xfa;" horiz-adv-x="582" 
d="M333 748h63q9 0 9 -9v-8q0 -6 -4 -10l-124 -120q-6 -6 -13 -1l-13 11q-7 5 -3 12l74 119q3 6 11 6zM448 541h47q13 0 13 -13v-506q0 -7 -2 -9t-11 -4q-81 -14 -202 -14q-72 0 -107.5 7t-64.5 29q-28 23 -39 67t-11 125v305q0 13 14 13h46q13 0 13 -13v-304
q0 -114 32 -141q18 -15 39 -19.5t66 -4.5h154v469q0 13 13 13z" />
    <glyph glyph-name="Ydieresis.001" unicode="&#xfb;" horiz-adv-x="582" 
d="M275 748h30q10 0 14 -7l89 -118q6 -6 -2 -12l-14 -11q-6 -4 -13 1l-89 80l-89 -80q-7 -5 -13 -1l-14 11q-8 6 -2 12l89 118q4 7 14 7zM448 541h47q13 0 13 -13v-506q0 -7 -2 -9t-11 -4q-81 -14 -202 -14q-72 0 -107.5 7t-64.5 29q-28 23 -39 67t-11 125v305q0 13 14 13
h46q13 0 13 -13v-304q0 -114 32 -141q18 -15 39 -19.5t66 -4.5h154v469q0 13 13 13z" />
    <glyph glyph-name="fraction" unicode="&#xfc;" horiz-adv-x="582" 
d="M205 720q49 0 49 -49q0 -51 -49 -51q-52 0 -52 51q0 49 52 49zM376 720q51 0 51 -49q0 -51 -51 -51q-50 0 -50 51q0 49 50 49zM448 541h47q13 0 13 -13v-506q0 -7 -2 -9t-11 -4q-81 -14 -202 -14q-72 0 -107.5 7t-64.5 29q-28 23 -39 67t-11 125v305q0 13 14 13h46
q13 0 13 -13v-304q0 -114 32 -141q18 -15 39 -19.5t66 -4.5h154v469q0 13 13 13z" />
    <glyph glyph-name="currency" unicode="&#xfd;" horiz-adv-x="581" 
d="M341 748h63q9 0 9 -9v-8q0 -5 -4 -10l-125 -120q-5 -5 -12 -1l-14 11q-7 4 -2 12l74 119q3 6 11 6zM446 541h47q13 0 13 -13v-485q0 -78 -9.5 -121.5t-34.5 -71.5q-24 -29 -65 -40t-114 -11q-77 0 -140 7q-12 2 -12 14v31q0 12 12 12h140q92 0 120 28q30 27 30 104v8
q-66 -8 -143 -8q-75 0 -115.5 12t-64.5 44q-23 32 -31.5 81t-8.5 139v257q0 13 12 13h47q13 0 13 -13v-255q0 -133 26 -174q25 -40 122 -40q76 0 143 9v460q0 13 13 13z" />
    <glyph glyph-name="guilsinglleft.001" unicode="&#xfe;" horiz-adv-x="569" 
d="M88 748h47q12 0 12 -13v-195q54 6 138 6q112 0 162 -33q27 -16 40 -50q25 -59 25 -192q0 -91 -8.5 -139.5t-32.5 -80.5t-64.5 -44t-114.5 -12q-76 0 -145 8v-186q0 -13 -12 -13h-47q-13 0 -13 13v918q0 13 13 13zM285 482h-138v-413q73 -10 145 -10q53 0 80.5 9t41.5 34
q15 26 20 62t5 108q0 131 -27 170q-25 40 -127 40z" />
    <glyph glyph-name="guilsinglright.001" unicode="&#xff;" horiz-adv-x="581" 
d="M214 720q50 0 50 -49q0 -51 -50 -51q-52 0 -52 51q0 49 52 49zM385 720q51 0 51 -49q0 -51 -51 -51q-50 0 -50 51q0 49 50 49zM446 541h47q13 0 13 -13v-485q0 -78 -9.5 -121.5t-34.5 -71.5q-24 -29 -65 -40t-114 -11q-77 0 -140 7q-12 2 -12 14v31q0 12 12 12h140
q92 0 120 28q30 27 30 104v8q-66 -8 -143 -8q-75 0 -115.5 12t-64.5 44q-23 32 -31.5 81t-8.5 139v257q0 13 12 13h47q13 0 13 -13v-255q0 -133 26 -174q25 -40 122 -40q76 0 143 9v460q0 13 13 13z" />
    <glyph glyph-name="fi" unicode="&#x100;" horiz-adv-x="660" 
d="M204 890h247q13 0 13 -13v-32q0 -13 -13 -13h-247q-13 0 -13 13v32q0 13 13 13zM328 753q68 0 88 -19q21 -20 42 -96l171 -624q3 -14 -10 -14h-57q-8 0 -11 13l-65 231h-314l-66 -231q-4 -13 -12 -13h-57q-13 0 -10 14l177 624q21 75 42 95q22 20 82 20zM328 686
q-23 0 -31 -11q-9 -12 -20 -55l-87 -308h278l-83 308q-12 44 -21 55q-8 11 -36 11z" />
    <glyph glyph-name="fl.001" unicode="&#x101;" horiz-adv-x="524" 
d="M131 690h247q13 0 13 -13v-32q0 -13 -13 -13h-247q-12 0 -12 13v32q0 13 12 13zM233 546q111 0 165.5 -36.5t54.5 -118.5v-350q0 -19 -18 -26q-54 -20 -213 -20q-102 0 -142 33q-41 35 -41 125q0 79 40 113.5t127 34.5h175v79q0 54 -35.5 78t-112.5 24h-135q-13 0 -13 13
v28q0 11 12 14q62 9 136 9zM381 71v167h-175q-50 0 -72.5 -19.5t-22.5 -65.5q0 -55 27.5 -75t99.5 -20q95 0 143 13z" />
    <glyph glyph-name="daggerdbl.001" unicode="&#x102;" horiz-adv-x="660" 
d="M433 938h24q15 0 12 -14q-7 -65 -38 -91q-30 -24 -103 -24t-103 24q-29 26 -38 91q-2 14 12 14h25q9 0 14 -11q11 -36 29.5 -49.5t60.5 -13.5t61 13.5t30 49.5q3 11 14 11zM328 753q68 0 88 -19q21 -20 42 -96l171 -624q3 -14 -10 -14h-57q-8 0 -11 13l-65 231h-314
l-66 -231q-4 -13 -12 -13h-57q-13 0 -10 14l177 624q21 75 42 95q22 20 82 20zM328 686q-23 0 -31 -11q-9 -12 -20 -55l-87 -308h278l-83 308q-12 44 -21 55q-8 11 -36 11z" />
    <glyph glyph-name="middot" unicode="&#x103;" horiz-adv-x="524" 
d="M360 738h25q14 0 11 -14q-7 -65 -38 -91q-30 -24 -103 -24t-103 24q-29 26 -38 91q-2 14 12 14h25q9 0 14 -11q11 -36 29.5 -49.5t60.5 -13.5t61 13.5t30 49.5q3 11 14 11zM233 546q111 0 165.5 -36.5t54.5 -118.5v-350q0 -19 -18 -26q-54 -20 -213 -20q-102 0 -142 33
q-41 35 -41 125q0 79 40 113.5t127 34.5h175v79q0 54 -35.5 78t-112.5 24h-135q-13 0 -13 13v28q0 11 12 14q62 9 136 9zM381 71v167h-175q-50 0 -72.5 -19.5t-22.5 -65.5q0 -55 27.5 -75t99.5 -20q95 0 143 13z" />
    <glyph glyph-name="quotesinglbase.001" unicode="&#x104;" horiz-adv-x="660" 
d="M328 753q68 0 88 -19q21 -20 42 -96l171 -624q3 -14 -10 -14h-22q-11 -49 -11 -65q0 -23 9 -29.5t39 -6.5h38q12 0 12 -13v-25q0 -12 -10 -16q-24 -7 -54 -7q-48 0 -67.5 16.5t-19.5 59.5q0 50 18 96l-65 234h-314l-66 -231q-4 -13 -12 -13h-57q-13 0 -10 14l177 624
q21 75 42 95q22 20 82 20zM328 686q-23 0 -31 -11q-9 -12 -20 -55l-87 -308h278l-83 308q-12 44 -21 55q-8 11 -36 11z" />
    <glyph glyph-name="quotedblbase.001" unicode="&#x105;" horiz-adv-x="524" 
d="M413 -101h38q13 0 13 -13v-25q0 -11 -11 -16q-24 -7 -53 -7q-48 0 -68 16.5t-20 59.5q0 32 14 85q-39 -4 -104 -4q-102 0 -142 33q-41 35 -41 125q0 79 40 113.5t127 34.5h175v79q0 54 -35.5 78t-112.5 24h-135q-13 0 -13 13v28q0 11 12 14q62 9 136 9q111 0 165.5 -36.5
t54.5 -118.5v-350q0 -19 -18 -26q-16 -7 -59 -12q-11 -49 -11 -68q0 -23 9.5 -29.5t38.5 -6.5zM111 153q0 -55 27.5 -75t99.5 -20q95 0 143 13v167h-175q-50 0 -72.5 -19.5t-22.5 -65.5z" />
    <glyph glyph-name="perthousand" unicode="&#x106;" horiz-adv-x="587" 
d="M385 948h63q9 0 9 -9v-8q0 -5 -5 -10l-124 -120q-6 -6 -12 -1l-14 11q-7 4 -2 12l74 119q3 6 11 6zM358 753q120 0 180 -6q12 -1 12 -14v-34q0 -13 -13 -13h-179q-74 0 -115 -14.5t-65 -51.5q-23 -37 -31.5 -91.5t-8.5 -154.5t8.5 -154t31.5 -92q24 -37 65 -51.5
t115 -14.5h179q13 0 13 -12v-35q0 -13 -12 -13q-66 -7 -180 -7q-137 0 -207 49q-51 40 -69.5 115t-19.5 215q0 174 35 259q30 66 89.5 92t171.5 28z" />
    <glyph glyph-name="Acircumflex" unicode="&#x107;" horiz-adv-x="475" 
d="M308 748h63q9 0 9 -9v-8q0 -5 -4 -10l-124 -120q-7 -5 -13 -1l-14 11q-7 4 -2 12l74 119q3 6 11 6zM279 546q96 0 148 -7q12 -1 12 -13v-31q0 -13 -13 -13h-147q-94 0 -123 -41q-27 -41 -27 -170q0 -131 27 -171q29 -41 123 -41h147q13 0 13 -13v-31q0 -11 -12 -13
q-62 -7 -148 -7q-137 0 -180 54q-42 55 -42 222t42 221q43 54 180 54z" />
    <glyph glyph-name="Ecircumflex" unicode="&#x108;" horiz-adv-x="587" 
d="M329 948h30q10 0 14 -7l89 -118q6 -6 -2 -12l-14 -11q-6 -4 -13 1l-89 80l-89 -80q-7 -5 -13 -1l-14 11q-8 6 -2 12l89 118q4 7 14 7zM358 753q120 0 180 -6q12 -1 12 -14v-34q0 -13 -13 -13h-179q-74 0 -115 -14.5t-65 -51.5q-23 -37 -31.5 -91.5t-8.5 -154.5t8.5 -154
t31.5 -92q24 -37 65 -51.5t115 -14.5h179q13 0 13 -12v-35q0 -13 -12 -13q-66 -7 -180 -7q-137 0 -207 49q-51 40 -69.5 115t-19.5 215q0 174 35 259q30 66 89.5 92t171.5 28z" />
    <glyph glyph-name="Aacute" unicode="&#x109;" horiz-adv-x="475" 
d="M248 748h30q10 0 14 -7l89 -118q6 -6 -2 -12l-14 -11q-7 -4 -12 1l-90 80l-89 -80q-7 -5 -13 -1l-13 11q-9 6 -3 12l89 118q4 7 14 7zM279 546q96 0 148 -7q12 -1 12 -13v-31q0 -13 -13 -13h-147q-94 0 -123 -41q-27 -41 -27 -170q0 -131 27 -171q29 -41 123 -41h147
q13 0 13 -13v-31q0 -11 -12 -13q-62 -7 -148 -7q-137 0 -180 54q-42 55 -42 222t42 221q43 54 180 54z" />
    <glyph glyph-name="Edieresis" unicode="&#x10a;" horiz-adv-x="587" 
d="M396 871q0 -51 -50 -51t-50 51q0 49 50 49t50 -49zM358 753q120 0 180 -6q12 -1 12 -14v-34q0 -13 -13 -13h-179q-74 0 -115 -14.5t-65 -51.5q-23 -37 -31.5 -91.5t-8.5 -154.5t8.5 -154t31.5 -92q24 -37 65 -51.5t115 -14.5h179q13 0 13 -12v-35q0 -13 -12 -13
q-66 -7 -180 -7q-137 0 -207 49q-51 40 -69.5 115t-19.5 215q0 174 35 259q30 66 89.5 92t171.5 28z" />
    <glyph glyph-name="Egrave" unicode="&#x10b;" horiz-adv-x="475" 
d="M304 671q0 -51 -50 -51t-50 51q0 49 50 49t50 -49zM279 546q96 0 148 -7q12 -1 12 -13v-31q0 -13 -13 -13h-147q-94 0 -123 -41q-27 -41 -27 -170q0 -131 27 -171q29 -41 123 -41h147q13 0 13 -13v-31q0 -11 -12 -13q-62 -7 -148 -7q-137 0 -180 54q-42 55 -42 222
t42 221q43 54 180 54z" />
    <glyph glyph-name="Iacute" unicode="&#x10c;" horiz-adv-x="587" 
d="M444 945l14 -10q7 -6 3 -13l-90 -118q-3 -6 -13 -6h-30q-10 0 -14 6l-90 118q-4 6 3 13l14 10q6 6 12 0l90 -80l89 80q6 6 12 0zM358 753q120 0 180 -6q12 -1 12 -14v-34q0 -13 -13 -13h-179q-74 0 -115 -14.5t-65 -51.5q-23 -37 -31.5 -91.5t-8.5 -154.5t8.5 -154
t31.5 -92q24 -37 65 -51.5t115 -14.5h179q13 0 13 -12v-35q0 -13 -12 -13q-66 -7 -180 -7q-137 0 -207 49q-51 40 -69.5 115t-19.5 215q0 174 35 259q30 66 89.5 92t171.5 28z" />
    <glyph glyph-name="Icircumflex" unicode="&#x10d;" horiz-adv-x="475" 
d="M375 745l14 -10q7 -7 3 -13l-90 -118q-4 -6 -14 -6h-29q-10 0 -14 6l-90 118q-4 6 3 13l14 10q6 6 12 0l89 -80l90 80q6 6 12 0zM279 546q96 0 148 -7q12 -1 12 -13v-31q0 -13 -13 -13h-147q-94 0 -123 -41q-27 -41 -27 -170q0 -131 27 -171q29 -41 123 -41h147
q13 0 13 -13v-31q0 -11 -12 -13q-62 -7 -148 -7q-137 0 -180 54q-42 55 -42 222t42 221q43 54 180 54z" />
    <glyph glyph-name="Idieresis" unicode="&#x10e;" horiz-adv-x="733" 
d="M438 945l14 -10q7 -7 3 -13l-90 -118q-5 -6 -14 -6h-30q-10 0 -13 6l-90 118q-4 7 3 13l14 10q6 6 12 0l89 -80l90 80q6 6 12 0zM371 753q167 0 235 -86q67 -85 67 -292q0 -208 -67 -294q-68 -86 -235 -86q-154 0 -271 5q-13 1 -13 13v722q0 12 13 13q88 5 271 5z
M359 686h-195v-624h207q126 0 176 71t50 242q0 169 -53 240t-185 71z" />
    <glyph glyph-name="Igrave" unicode="&#x10f;" horiz-adv-x="597" 
d="M434 748h47q13 0 13 -13v-709q0 -13 -14 -15q-102 -16 -203 -16q-137 0 -179 53q-41 55 -41 223q0 128 24 192q22 48 66 64.5t137 18.5q84 0 138 -6v195q0 13 12 13zM610 748h58q9 0 9 -9v-8q0 -5 -5 -10l-90 -120q-5 -6 -13 -1l-14 11q-5 5 -2 12l46 119q3 6 11 6z
M422 69v413h-138q-101 0 -128 -40q-26 -40 -26 -170q0 -133 25 -173t122 -40q72 0 145 10z" />
    <glyph glyph-name="Oacute" unicode="&#x110;" horiz-adv-x="741" 
d="M379 753q167 0 235 -86q67 -85 67 -292q0 -208 -67 -294q-68 -86 -235 -86q-154 0 -271 5q-13 1 -13 13v329h-72q-13 0 -13 12v33q0 13 13 13h72v335q0 12 13 13q88 5 271 5zM172 342v-280h207q126 0 176 71t50 242q0 169 -53 240t-185 71h-195v-286h169q12 0 12 -13v-33
q0 -13 -12 -13z" />
    <glyph glyph-name="Ocircumflex" unicode="&#x111;" horiz-adv-x="568" 
d="M494 735v-68h63q12 0 12 -13v-24q0 -13 -12 -13h-63v-591q0 -13 -14 -15q-102 -16 -203 -16q-137 0 -179 53q-41 55 -41 223q0 128 24 192q22 48 66 64.5t137 18.5q84 0 138 -6v77h-152q-12 0 -12 13v24q0 13 12 13h152v68q0 13 12 13h47q13 0 13 -13zM422 69v413h-138
q-101 0 -128 -40q-26 -40 -26 -170q0 -133 25 -173t122 -40q72 0 145 10z" />
    <glyph glyph-name="apple" unicode="&#x112;" 
d="M195 890h247q13 0 13 -13v-32q0 -13 -13 -13h-247q-13 0 -13 13v32q0 13 13 13zM102 748h452q13 0 13 -12v-42q0 -13 -13 -13h-390v-287h354q13 0 13 -12v-42q0 -13 -13 -13h-354v-260h390q13 0 13 -12v-42q0 -13 -13 -13h-452q-15 0 -15 15v718q0 15 15 15z" />
    <glyph glyph-name="Ograve" unicode="&#x113;" horiz-adv-x="534" 
d="M149 690h247q13 0 13 -13v-32q0 -13 -13 -13h-247q-13 0 -13 13v32q0 13 13 13zM275 546q128 0 169 -51q43 -52 44 -206v-29q0 -15 -5.5 -20t-25.5 -5h-327q2 -107 30 -141q29 -35 115 -35h157q13 0 13 -13v-31q0 -11 -12 -13q-62 -7 -158 -7q-72 0 -112.5 12t-64.5 44
q-23 32 -32 81.5t-9 138.5q0 166 41 221q42 54 177 54zM275 482q-89 0 -116 -36q-28 -35 -29 -146h285q-1 111 -28 147q-26 35 -112 35z" />
    <glyph glyph-name="Uacute" unicode="&#x114;" 
d="M441 938h25q14 0 11 -14q-7 -65 -38 -91q-30 -24 -103 -24t-103 24q-29 26 -38 91q-2 14 12 14h25q9 0 14 -11q11 -36 29.5 -49.5t60.5 -13.5t61 13.5t30 49.5q3 11 14 11zM102 748h452q13 0 13 -12v-42q0 -13 -13 -13h-390v-287h354q13 0 13 -12v-42q0 -13 -13 -13h-354
v-260h390q13 0 13 -12v-42q0 -13 -13 -13h-452q-15 0 -15 15v718q0 15 15 15z" />
    <glyph glyph-name="Ucircumflex" unicode="&#x115;" horiz-adv-x="534" 
d="M378 738h24q15 0 12 -14q-9 -65 -39 -91q-29 -24 -102 -24t-103 24q-29 26 -38 91q-3 14 12 14h24q10 0 15 -11q11 -36 29.5 -49.5t60.5 -13.5t60.5 13.5t29.5 49.5q5 11 15 11zM275 546q128 0 169 -51q43 -52 44 -206v-29q0 -15 -5.5 -20t-25.5 -5h-327q2 -107 30 -141
q29 -35 115 -35h157q13 0 13 -13v-31q0 -11 -12 -13q-62 -7 -158 -7q-72 0 -112.5 12t-64.5 44q-23 32 -32 81.5t-9 138.5q0 166 41 221q42 54 177 54zM275 482q-89 0 -116 -36q-28 -35 -29 -146h285q-1 111 -28 147q-26 35 -112 35z" />
    <glyph glyph-name="Ugrave" unicode="&#x116;" 
d="M327 920q50 0 50 -49q0 -51 -50 -51q-51 0 -51 51q0 49 51 49zM102 748h452q13 0 13 -12v-42q0 -13 -13 -13h-390v-287h354q13 0 13 -12v-42q0 -13 -13 -13h-354v-260h390q13 0 13 -12v-42q0 -13 -13 -13h-452q-15 0 -15 15v718q0 15 15 15z" />
    <glyph glyph-name="dotlessi" unicode="&#x117;" horiz-adv-x="534" 
d="M273 720q50 0 50 -49q0 -51 -50 -51q-51 0 -51 51q0 49 51 49zM275 546q128 0 169 -51q43 -52 44 -206v-29q0 -15 -5.5 -20t-25.5 -5h-327q2 -107 30 -141q29 -35 115 -35h157q13 0 13 -13v-31q0 -11 -12 -13q-62 -7 -158 -7q-72 0 -112.5 12t-64.5 44q-23 32 -32 81.5
t-9 138.5q0 166 41 221q42 54 177 54zM275 482q-89 0 -116 -36q-28 -35 -29 -146h285q-1 111 -28 147q-26 35 -112 35z" />
    <glyph glyph-name="circumflex" unicode="&#x118;" 
d="M102 748h452q13 0 13 -12v-42q0 -13 -13 -13h-390v-287h354q13 0 13 -12v-42q0 -13 -13 -13h-354v-260h390q13 0 13 -12v-42q0 -13 -13 -13h-84q-11 -49 -11 -65q0 -23 9 -29.5t39 -6.5h38q12 0 12 -13v-25q0 -12 -10 -16q-24 -7 -54 -7q-47 0 -67 16.5t-20 59.5
q0 32 14 86h-318q-15 0 -15 15v718q0 15 15 15z" />
    <glyph glyph-name="tilde.001" unicode="&#x119;" horiz-adv-x="534" 
d="M275 546q128 0 169 -51q43 -52 44 -206v-29q0 -15 -5.5 -20t-25.5 -5h-327q2 -107 30 -141q29 -35 115 -35h157q13 0 13 -13v-31q0 -11 -12 -13q-44 -4 -52 -4q-9 -44 -9 -63q0 -23 9 -29.5t38 -6.5h38q13 0 13 -13v-25q0 -12 -10 -16q-27 -7 -54 -7q-48 0 -67.5 16.5
t-19.5 59.5q0 38 12 82l-56 -1q-72 0 -112.5 12t-64.5 44q-23 32 -32 81.5t-9 138.5q0 166 41 221q42 54 177 54zM275 482q-89 0 -116 -36q-28 -35 -29 -146h285q-1 111 -28 147q-26 35 -112 35z" />
    <glyph glyph-name="overscore" unicode="&#x11a;" 
d="M421 945l14 -10q7 -7 2 -13l-89 -118q-4 -6 -14 -6h-30q-10 0 -14 6l-89 118q-5 6 2 13l14 10q6 4 13 0l89 -80l89 80q7 4 13 0zM102 748h452q13 0 13 -12v-42q0 -13 -13 -13h-390v-287h354q13 0 13 -12v-42q0 -13 -13 -13h-354v-260h390q13 0 13 -12v-42q0 -13 -13 -13
h-452q-15 0 -15 15v718q0 15 15 15z" />
    <glyph glyph-name="breve" unicode="&#x11b;" horiz-adv-x="534" 
d="M375 745l14 -10q7 -7 2 -13l-89 -118q-4 -6 -14 -6h-30q-10 0 -14 6l-89 118q-5 6 2 13l14 10q7 4 13 0l89 -80l89 80q6 4 13 0zM275 546q128 0 169 -51q43 -52 44 -206v-29q0 -15 -5.5 -20t-25.5 -5h-327q2 -107 30 -141q29 -35 115 -35h157q13 0 13 -13v-31
q0 -11 -12 -13q-62 -7 -158 -7q-72 0 -112.5 12t-64.5 44q-23 32 -32 81.5t-9 138.5q0 166 41 221q42 54 177 54zM275 482q-89 0 -116 -36q-28 -35 -29 -146h285q-1 111 -28 147q-26 35 -112 35z" />
    <glyph glyph-name="dotaccent" unicode="&#x11c;" horiz-adv-x="652" 
d="M324 948h30q10 0 14 -7l90 -118q4 -6 -3 -12l-14 -11q-6 -5 -12 1l-90 80l-89 -80q-6 -6 -12 -1l-14 11q-8 5 -3 12l90 118q3 7 13 7zM358 753q123 0 183 -6q12 -1 12 -14v-34q0 -13 -13 -13h-182q-74 0 -115 -14.5t-65 -52.5q-23 -37 -31.5 -91.5t-8.5 -154.5t8.5 -154
t31.5 -91q24 -37 65 -51.5t115 -14.5h164v293q0 12 13 12h47q13 0 13 -12v-311q0 -11 -4 -16q-24 -35 -218 -33h-15q-136 0 -207 48q-51 40 -69.5 115t-19.5 215q0 117 13 185.5t46 113.5t88.5 63t148.5 18z" />
    <glyph glyph-name="ring.001" unicode="&#x11d;" horiz-adv-x="568" 
d="M274 748h30q10 0 14 -7l89 -118q6 -6 -2 -12l-14 -11q-6 -4 -13 1l-89 80l-89 -80q-7 -5 -13 -1l-14 11q-8 6 -2 12l89 118q4 7 14 7zM278 546q106 0 203 -13q13 -1 13 -15v-477q0 -144 -44 -193q-43 -49 -178 -49q-72 0 -135 7q-12 2 -12 14v31q0 12 12 12h135
q92 0 120 28q30 27 30 104v7q-52 -7 -137 -7q-108 0 -163 32q-37 29 -50 82t-14 160q0 168 41 223q42 54 179 54zM422 66v416h-144q-97 0 -122 -40t-25 -172q0 -101 14 -147q12 -36 44 -50t96 -14q80 0 137 7z" />
    <glyph glyph-name="cedilla" unicode="&#x11e;" horiz-adv-x="652" 
d="M447 938h25q14 0 12 -14q-9 -65 -39 -91q-29 -24 -102 -24t-103 24q-31 26 -38 91q-3 14 11 14h25q11 0 14 -11q11 -36 30 -49.5t61 -13.5t60.5 13.5t29.5 49.5q3 11 14 11zM358 753q123 0 183 -6q12 -1 12 -14v-34q0 -13 -13 -13h-182q-74 0 -115 -14.5t-65 -52.5
q-23 -37 -31.5 -91.5t-8.5 -154.5t8.5 -154t31.5 -91q24 -37 65 -51.5t115 -14.5h164v293q0 12 13 12h47q13 0 13 -12v-311q0 -11 -4 -16q-24 -35 -218 -33h-15q-136 0 -207 48q-51 40 -69.5 115t-19.5 215q0 117 13 185.5t46 113.5t88.5 63t148.5 18z" />
    <glyph glyph-name="hungarumlaut" unicode="&#x11f;" horiz-adv-x="568" 
d="M394 738h24q15 0 12 -14q-9 -65 -39 -91q-29 -24 -102 -24t-103 24q-29 26 -38 91q-3 14 12 14h24q10 0 15 -11q11 -36 29.5 -49.5t60.5 -13.5t61 13.5t30 49.5q3 11 14 11zM278 546q106 0 203 -13q13 -1 13 -15v-477q0 -144 -44 -193q-43 -49 -178 -49q-72 0 -135 7
q-12 2 -12 14v31q0 12 12 12h135q92 0 120 28q30 27 30 104v7q-52 -7 -137 -7q-108 0 -163 32q-37 29 -50 82t-14 160q0 168 41 223q42 54 179 54zM422 66v416h-144q-97 0 -122 -40t-25 -172q0 -101 14 -147q12 -36 44 -50t96 -14q80 0 137 7z" />
    <glyph glyph-name="ogonek.001" unicode="&#x120;" horiz-adv-x="652" 
d="M393 871q0 -51 -50 -51t-50 51q0 49 50 49t50 -49zM358 753q123 0 183 -6q12 -1 12 -14v-34q0 -13 -13 -13h-182q-74 0 -115 -14.5t-65 -52.5q-23 -37 -31.5 -91.5t-8.5 -154.5t8.5 -154t31.5 -91q24 -37 65 -51.5t115 -14.5h164v293q0 12 13 12h47q13 0 13 -12v-311
q0 -11 -4 -16q-24 -35 -218 -33h-15q-136 0 -207 48q-51 40 -69.5 115t-19.5 215q0 117 13 185.5t46 113.5t88.5 63t148.5 18z" />
    <glyph glyph-name="caron" unicode="&#x121;" horiz-adv-x="568" 
d="M289 720q50 0 50 -49q0 -51 -50 -51q-51 0 -51 51q0 49 51 49zM278 546q106 0 203 -13q13 -1 13 -15v-477q0 -144 -44 -193q-43 -49 -178 -49q-72 0 -135 7q-12 2 -12 14v31q0 12 12 12h135q92 0 120 28q30 27 30 104v7q-52 -7 -137 -7q-108 0 -163 32q-37 29 -50 82
t-14 160q0 168 41 223q42 54 179 54zM422 66v416h-144q-97 0 -122 -40t-25 -172q0 -101 14 -147q12 -36 44 -50t96 -14q80 0 137 7z" />
    <glyph glyph-name="Lslash" unicode="&#x122;" horiz-adv-x="652" 
d="M358 753q123 0 183 -6q12 -1 12 -14v-34q0 -13 -13 -13h-182q-74 0 -115 -14.5t-65 -52.5q-23 -37 -31.5 -91.5t-8.5 -154.5t8.5 -154t31.5 -91q24 -37 65 -51.5t115 -14.5h164v293q0 12 13 12h47q13 0 13 -12v-311q0 -11 -4 -16q-24 -35 -218 -33h-15q-136 0 -207 48
q-51 40 -69.5 115t-19.5 215q0 117 13 185.5t46 113.5t88.5 63t148.5 18zM336 -38h55q9 0 9 -9v-7q0 -7 -4 -11l-116 -120q-6 -4 -13 0l-14 10q-6 6 -2 13l74 119q3 5 11 5z" />
    <glyph glyph-name="lslash" unicode="&#x123;" horiz-adv-x="568" 
d="M385 747l14 -10q6 -6 2 -13l-74 -119q-3 -5 -11 -5h-55q-9 0 -9 9v7q0 7 4 11l116 120q6 4 13 0zM278 546q106 0 203 -13q13 -1 13 -15v-477q0 -144 -44 -193q-43 -49 -178 -49q-72 0 -135 7q-12 2 -12 14v31q0 12 12 12h135q92 0 120 28q30 27 30 104v7q-52 -7 -137 -7
q-108 0 -163 32q-37 29 -50 82t-14 160q0 168 41 223q42 54 179 54zM422 66v416h-144q-97 0 -122 -40t-25 -172q0 -101 14 -147q12 -36 44 -50t96 -14q80 0 137 7z" />
    <glyph glyph-name="Scaron.001" unicode="&#x124;" horiz-adv-x="767" 
d="M378 948h29q10 0 14 -7l90 -118q5 -6 -3 -12l-14 -11q-6 -5 -12 1l-89 80l-90 -80q-6 -6 -12 -1l-14 11q-7 6 -3 12l90 118q4 7 14 7zM617 748h51q12 0 12 -12v-723q0 -13 -12 -13h-51q-13 0 -13 13v336h-440v-336q0 -13 -13 -13h-51q-13 0 -13 13v723q0 12 13 12h51
q13 0 13 -12v-319h440v319q0 12 13 12z" />
    <glyph glyph-name="scaron.001" unicode="&#x125;" horiz-adv-x="583" 
d="M93 924h30q9 0 13 -7l90 -118q4 -7 -3 -12l-13 -10q-7 -6 -13 0l-89 80l-90 -80q-4 -5 -12 0l-14 10q-8 6 -2 12l89 118q4 7 14 7zM88 748h47q12 0 12 -13v-194q57 5 143 5q45 0 74 -3q72 -5 99 -33q49 -45 49 -192v-305q0 -13 -13 -13h-47q-13 0 -13 13v305
q0 113 -32 140q-18 16 -38.5 20.5t-66.5 4.5h-155v-470q0 -13 -12 -13h-47q-13 0 -13 13v722q0 13 13 13z" />
    <glyph glyph-name="Zcaron" unicode="&#x126;" horiz-adv-x="769" 
d="M681 736v-79h41q13 0 13 -13v-33q0 -12 -13 -12h-41v-586q0 -13 -13 -13h-50q-13 0 -13 13v336h-440v-336q0 -13 -13 -13h-51q-13 0 -13 13v586h-42q-12 0 -12 12v33q0 13 12 13h42v79q0 12 13 12h51q13 0 13 -12v-79h440v79q0 12 13 12h50q13 0 13 -12zM165 417h440v182
h-440v-182z" />
    <glyph glyph-name="zcaron" unicode="&#x127;" horiz-adv-x="583" 
d="M290 546q45 0 74 -3q72 -5 99 -33q49 -45 49 -192v-305q0 -13 -13 -13h-47q-13 0 -13 13v305q0 113 -32 140q-18 16 -38.5 20.5t-66.5 4.5h-155v-470q0 -13 -12 -13h-47q-13 0 -13 13v604h-63q-13 0 -13 13v24q0 13 13 13h63v68q0 13 13 13h47q12 0 12 -13v-68h152
q12 0 12 -13v-24q0 -13 -12 -13h-152v-76q57 5 143 5z" />
    <glyph glyph-name="brokenbar" unicode="&#x128;" horiz-adv-x="250" 
d="M55 927q21 0 69 -23q45 -22 63 -22q19 0 28.5 7.5t18.5 30.5q6 13 16 10l18 -4q13 -4 10 -20q-16 -52 -34 -71q-16 -18 -54 -18q-25 0 -70 22q-48 23 -62 23q-19 0 -28.5 -8t-19.5 -31q-4 -13 -15 -10l-19 5q-12 4 -9 19q16 54 34 72t54 18zM98 748h51q13 0 13 -12v-723
q0 -13 -13 -13h-51q-12 0 -12 13v723q0 12 12 12z" />
    <glyph glyph-name="Eth" unicode="&#x129;" horiz-adv-x="223" 
d="M44 727q21 0 69 -23q45 -22 62 -22q20 0 29.5 7.5t18.5 30.5q4 8 6.5 10t9.5 0l18 -4q13 -4 9 -20q-16 -53 -33.5 -71t-54.5 -18q-24 0 -69 22q-48 23 -62 23q-19 0 -28.5 -8t-19.5 -31q-4 -8 -6.5 -10t-9.5 0l-18 5q-13 4 -9 19q16 52 34 72q16 18 54 18zM88 541h47
q13 0 13 -13v-515q0 -13 -13 -13h-47q-13 0 -13 13v515q0 13 13 13z" />
    <glyph glyph-name="eth" unicode="&#x12a;" horiz-adv-x="250" 
d="M-1 890h248q12 0 12 -13v-32q0 -13 -12 -13h-248q-12 0 -12 13v32q0 13 12 13zM99 748h51q13 0 13 -12v-723q0 -13 -13 -13h-51q-12 0 -12 13v723q0 12 12 12z" />
    <glyph glyph-name="Yacute" unicode="&#x12b;" horiz-adv-x="222" 
d="M-13 690h247q13 0 13 -13v-32q0 -13 -13 -13h-247q-13 0 -13 13v32q0 13 13 13zM87 541h47q13 0 13 -13v-515q0 -13 -13 -13h-47q-12 0 -12 13v515q0 13 12 13z" />
    <glyph glyph-name="yacute" unicode="&#x12e;" horiz-adv-x="250" 
d="M99 748h51q13 0 13 -12v-724q0 -12 -12 -12h-15q-11 -49 -11 -65q0 -23 9 -29.5t39 -6.5h37q13 0 13 -13v-25q0 -12 -10 -16q-24 -7 -54 -7q-48 0 -67.5 16.5t-19.5 59.5q0 32 15 88v734q0 12 12 12z" />
    <glyph glyph-name="Thorn" unicode="&#x12f;" horiz-adv-x="223" 
d="M113 720q49 0 49 -49q0 -51 -49 -51q-51 0 -51 51q0 49 51 49zM88 541h47q13 0 13 -13v-516q0 -12 -12 -12h-11q-11 -49 -11 -65q0 -23 9 -29.5t39 -6.5h38q13 0 13 -13v-25q0 -11 -11 -16q-24 -7 -54 -7q-47 0 -67 16.5t-20 59.5q0 34 14 88v526q0 13 13 13z" />
    <glyph glyph-name="thorn" unicode="&#x130;" horiz-adv-x="250" 
d="M173 871q0 -51 -50 -51t-50 51q0 49 50 49t50 -49zM99 748h51q13 0 13 -12v-723q0 -13 -13 -13h-51q-12 0 -12 13v723q0 12 12 12z" />
    <glyph glyph-name="minus.001" unicode="&#x131;" horiz-adv-x="223" 
d="M88 541h47q13 0 13 -13v-515q0 -13 -13 -13h-47q-13 0 -13 13v515q0 13 13 13z" />
    <glyph glyph-name="multiply" unicode="&#x132;" horiz-adv-x="811" 
d="M99 748h51q13 0 13 -12v-723q0 -13 -13 -13h-51q-12 0 -12 13v723q0 12 12 12zM388 748h329q15 0 15 -15v-356q1 -223 -62 -303q-63 -79 -247 -79q-80 0 -144 7q-12 0 -12 13v35q0 12 12 12h144q143 0 189 64q46 63 44 251l-1 304h-267q-13 0 -13 13v42q0 12 13 12z" />
    <glyph glyph-name="onesuperior" unicode="&#x133;" horiz-adv-x="448" 
d="M112 740q46 0 46 -46q0 -48 -46 -48q-48 0 -48 48q0 46 48 46zM88 541h47q13 0 13 -13v-515q0 -13 -13 -13h-47q-13 0 -13 13v515q0 13 13 13zM384 694q0 -48 -47 -48t-47 48q0 46 47 46t47 -46zM313 541h47q13 0 13 -13v-649q0 -55 -35 -67q-28 -11 -61 -11t-49 3
q-12 3 -12 14v35q0 12 14 12h28q27 0 34.5 8t7.5 38v617q0 13 13 13z" />
    <glyph glyph-name="twosuperior" unicode="&#x134;" horiz-adv-x="555" 
d="M275 948h30q10 0 14 -7l89 -118q6 -6 -2 -12l-14 -11q-6 -4 -13 1l-89 80l-89 -80q-7 -5 -13 -1l-14 11q-8 6 -2 12l89 118q4 7 14 7zM132 748h329q15 0 15 -15v-356q1 -223 -62 -303q-63 -79 -247 -79q-80 0 -144 7q-12 0 -12 13v35q0 12 12 12h144q143 0 189 64
q46 63 44 251l-1 304h-267q-13 0 -13 13v42q0 12 13 12z" />
    <glyph glyph-name="threesuperior" unicode="&#x135;" horiz-adv-x="225" 
d="M97 748h30q10 0 14 -7l89 -118q6 -6 -2 -12l-14 -11q-6 -4 -13 1l-89 80l-89 -80q-7 -5 -13 -1l-14 11q-8 6 -2 12l89 118q4 7 14 7zM90 541h47q13 0 13 -13v-649q0 -55 -35 -67q-28 -11 -61 -11q-32 0 -49 3q-12 3 -12 14v35q0 12 14 12h28q27 0 34.5 8t7.5 38v617
q0 13 13 13z" />
    <glyph glyph-name="onehalf" unicode="&#x136;" horiz-adv-x="595" 
d="M496 748h59q20 0 7 -16l-318 -330l337 -380q7 -8 3.5 -15t-17.5 -7h-55q-13 0 -19 9l-329 374v-370q0 -13 -13 -13h-51q-13 0 -13 13v723q0 12 13 12h51q13 0 13 -12v-315l314 319q6 8 18 8zM300 -38h55q9 0 9 -9v-7q0 -6 -4 -11l-117 -120q-5 -5 -12 0l-14 10
q-6 6 -2 13l74 119q3 5 11 5z" />
    <glyph glyph-name="onequarter" unicode="&#x137;" horiz-adv-x="485" 
d="M88 748h47q12 0 12 -14v-388l180 186q7 9 20 9h62q23 0 8 -17l-192 -195l252 -307q7 -8 3.5 -15t-17.5 -7h-50q-14 0 -21 10l-245 302v-298q0 -14 -12 -14h-47q-13 0 -13 14v720q0 14 13 14zM238 -38h56q9 0 9 -9v-7q0 -6 -5 -11l-116 -120q-6 -6 -12 0l-14 10
q-7 6 -3 13l75 119q3 5 10 5z" />
    <glyph glyph-name="threequarters" unicode="&#x138;" horiz-adv-x="499" 
d="M392 541h59q19 0 5 -17l-225 -242l251 -268q12 -16 -8 -16h-66q-12 0 -18 8l-239 253v-246q0 -13 -13 -13h-51q-13 0 -13 13v515q0 13 13 13h51q13 0 13 -13v-232l222 236q9 9 19 9z" />
    <glyph glyph-name="franc" unicode="&#x139;" horiz-adv-x="569" 
d="M182 948h63q9 0 9 -9v-8q0 -5 -5 -10l-124 -120q-5 -5 -12 -1l-14 11q-7 4 -2 12l74 119q3 6 11 6zM100 748h51q13 0 13 -12v-669h378q13 0 13 -12v-42q0 -13 -13 -13h-440q-15 0 -15 15v721q0 12 13 12z" />
    <glyph glyph-name="Gbreve" unicode="&#x13a;" horiz-adv-x="222" 
d="M161 937h64q9 0 9 -9v-7q0 -6 -5 -11l-124 -120q-6 -4 -12 0l-14 10q-6 6 -3 13l75 119q3 5 10 5zM87 748h47q13 0 13 -12v-723q0 -13 -13 -13h-47q-12 0 -12 13v723q0 12 12 12z" />
    <glyph glyph-name="gbreve" unicode="&#x13b;" horiz-adv-x="569" 
d="M100 748h51q13 0 13 -12v-669h378q13 0 13 -12v-42q0 -13 -13 -13h-440q-15 0 -15 15v721q0 12 13 12zM314 -38h56q8 0 8 -9v-7q0 -7 -4 -11l-116 -120q-6 -4 -13 0l-14 10q-6 6 -2 13l74 119q3 5 11 5z" />
    <glyph glyph-name="Idot" unicode="&#x13c;" horiz-adv-x="223" 
d="M88 748h47q13 0 13 -12v-723q0 -13 -13 -13h-47q-13 0 -13 13v723q0 12 13 12zM83 -38h55q9 0 9 -9v-7q0 -6 -4 -11l-117 -120q-4 -5 -12 0l-14 10q-6 6 -2 13l74 119q3 5 11 5z" />
    <glyph glyph-name="Scedilla.001" unicode="&#x13d;" horiz-adv-x="569" 
d="M100 748h51q13 0 13 -12v-669h378q13 0 13 -12v-42q0 -13 -13 -13h-440q-15 0 -15 15v721q0 12 13 12zM320 748h58q9 0 9 -9v-8q0 -5 -5 -10l-90 -120q-5 -6 -13 -1l-14 11q-5 5 -2 12l46 119q1 6 11 6z" />
    <glyph glyph-name="scedilla.001" unicode="&#x13e;" horiz-adv-x="252" 
d="M88 748h47q13 0 13 -12v-723q0 -13 -13 -13h-47q-13 0 -13 13v723q0 12 13 12zM249 748h58q9 0 9 -9v-8q0 -6 -4 -10l-91 -120q-4 -7 -12 -1l-14 11q-6 5 -3 12l47 119q1 6 10 6z" />
    <glyph glyph-name="Cacute" unicode="&#x13f;" horiz-adv-x="569" 
d="M100 748h51q13 0 13 -12v-669h378q13 0 13 -12v-42q0 -13 -13 -13h-440q-15 0 -15 15v721q0 12 13 12zM357 369q49 0 49 -50t-49 -50q-51 0 -51 50t51 50z" />
    <glyph glyph-name="cacute" unicode="&#x140;" horiz-adv-x="279" 
d="M88 748h47q13 0 13 -12v-723q0 -13 -13 -13h-47q-13 0 -13 13v723q0 12 13 12zM201 319q0 50 50 50t50 -50t-50 -50t-50 50z" />
    <glyph glyph-name="Ccaron" unicode="&#x141;" horiz-adv-x="581" 
d="M176 331v-264h378q13 0 13 -12v-42q0 -13 -13 -13h-440q-15 0 -15 15v271l-65 -37q-12 -8 -16 5l-14 25q-7 9 4 17l91 52v388q0 12 13 12h51q13 0 13 -12v-343l107 61q13 6 17 -4l15 -25q6 -11 -5 -17z" />
    <glyph glyph-name="ccaron" unicode="&#x142;" horiz-adv-x="268" 
d="M107 748h47q13 0 13 -12v-340l53 31q14 6 18 -4l14 -25q8 -11 -5 -17l-80 -47v-321q0 -13 -13 -13h-47q-13 0 -13 13v279l-49 -28q-12 -8 -16 5l-14 25q-6 11 4 17l75 43v382q0 12 13 12z" />
    <glyph glyph-name="dslash" unicode="&#x143;" horiz-adv-x="763" 
d="M405 948h64q9 0 9 -9v-8q0 -5 -5 -10l-124 -120q-6 -6 -12 -1l-14 11q-7 5 -3 12l75 119q3 6 10 6zM613 748h51q12 0 12 -12v-723q0 -13 -12 -13h-49q-17 0 -28 15l-423 634v-636q0 -13 -13 -13h-51q-13 0 -13 13v723q0 12 13 12h54q21 0 29 -4t18 -19l399 -598v609
q0 12 13 12z" />
    <glyph glyph-name="nacute" unicode="&#x144;" horiz-adv-x="582" 
d="M316 748h64q9 0 9 -9v-8q0 -5 -5 -10l-124 -120q-6 -6 -12 -1l-14 11q-8 5 -3 12l75 119q3 6 10 6zM289 546q45 0 74 -3q71 -5 99 -33q49 -45 49 -192v-305q0 -13 -15 -13h-45q-13 0 -13 13v305q0 113 -32 140q-18 15 -39 19.5t-66 4.5h-155v-469q0 -13 -12 -13h-47
q-13 0 -13 13v506q0 12 13 13q81 14 202 14z" />
    <glyph glyph-name="uni0145" unicode="&#x145;" horiz-adv-x="763" 
d="M613 748h51q12 0 12 -12v-723q0 -13 -12 -13h-49q-17 0 -28 15l-423 634v-636q0 -13 -13 -13h-51q-13 0 -13 13v723q0 12 13 12h54q21 0 29 -4t18 -19l399 -598v609q0 12 13 12zM351 -38h56q9 0 9 -9v-7q0 -6 -5 -11l-116 -120q-6 -6 -12 0l-14 10q-7 6 -3 13l75 119
q3 5 10 5z" />
    <glyph glyph-name="uni0146" unicode="&#x146;" horiz-adv-x="582" 
d="M289 546q45 0 74 -3q71 -5 99 -33q49 -45 49 -192v-305q0 -13 -15 -13h-45q-13 0 -13 13v305q0 113 -32 140q-18 15 -39 19.5t-66 4.5h-155v-469q0 -13 -12 -13h-47q-13 0 -13 13v506q0 12 13 13q81 14 202 14zM259 -38h56q9 0 9 -9v-7q0 -6 -5 -11l-116 -120
q-6 -6 -12 0l-14 10q-7 6 -3 13l74 119q3 5 11 5z" />
    <glyph glyph-name="Ncaron" unicode="&#x147;" horiz-adv-x="763" 
d="M484 945l13 -10q7 -7 3 -13l-89 -118q-5 -6 -14 -6h-30q-9 0 -14 6l-89 118q-5 6 2 13l14 10q8 5 12 0l90 -80l89 80q7 4 13 0zM613 748h51q12 0 12 -12v-723q0 -13 -12 -13h-49q-17 0 -28 15l-423 634v-636q0 -13 -13 -13h-51q-13 0 -13 13v723q0 12 13 12h54
q21 0 29 -4t18 -19l399 -598v609q0 12 13 12z" />
    <glyph glyph-name="ncaron" unicode="&#x148;" horiz-adv-x="582" 
d="M395 745l13 -10q7 -6 3 -13l-90 -118q-3 -6 -13 -6h-30q-10 0 -14 6l-89 118q-5 6 2 13l14 10q7 5 12 0l90 -80l89 80q6 6 13 0zM289 546q45 0 74 -3q71 -5 99 -33q49 -45 49 -192v-305q0 -13 -15 -13h-45q-13 0 -13 13v305q0 113 -32 140q-18 15 -39 19.5t-66 4.5h-155
v-469q0 -13 -12 -13h-47q-13 0 -13 13v506q0 12 13 13q81 14 202 14z" />
    <glyph glyph-name="napostrophe" unicode="&#x149;" horiz-adv-x="582" 
d="M63 748h58q9 0 9 -9v-8q0 -5 -5 -10l-90 -120q-5 -6 -13 -1l-14 11q-5 5 -2 12l46 119q2 6 11 6zM289 546q45 0 74 -3q71 -5 99 -33q49 -45 49 -192v-305q0 -13 -15 -13h-45q-13 0 -13 13v305q0 113 -32 140q-18 15 -39 19.5t-66 4.5h-155v-469q0 -13 -12 -13h-47
q-13 0 -13 13v506q0 12 13 13q81 14 202 14z" />
    <glyph glyph-name="Eng" unicode="&#x14a;" horiz-adv-x="763" 
d="M613 748h51q12 0 12 -12v-554q0 -57 -2 -115q-2 -117 -23 -160q-28 -65 -77 -84q-62 -24 -160 -24q-62 0 -94 7q-12 2 -12 13v35q0 12 12 12h94q103 0 144 32q42 32 40 115l-434 636v-636q0 -13 -13 -13h-51q-13 0 -13 13v723q0 12 13 12h54q21 0 29 -4t18 -19l399 -596
v607q0 12 13 12z" />
    <glyph glyph-name="eng" unicode="&#x14b;" horiz-adv-x="582" 
d="M289 546q45 0 74 -3q71 -5 99 -33q49 -45 49 -192v-439q0 -55 -35 -67q-28 -11 -61 -11t-49 3q-12 3 -12 14v35q0 12 14 12h28q27 0 34.5 8t7.5 38v407q0 113 -32 140q-18 15 -39 19.5t-66 4.5h-155v-469q0 -13 -12 -13h-47q-13 0 -13 13v506q0 12 13 13q81 14 202 14z
" />
    <glyph glyph-name="Omacron" unicode="&#x14c;" horiz-adv-x="717" 
d="M234 890h248q12 0 12 -13v-32q0 -13 -12 -13h-248q-12 0 -12 13v32q0 13 12 13zM358 753q138 0 208 -49q51 -40 69.5 -115.5t19.5 -215.5q0 -117 -13 -185.5t-46 -113.5q-33 -44 -88 -61.5t-150 -17.5t-149.5 17.5t-87.5 61.5q-33 45 -46 113.5t-13 185.5q0 175 35 260
q30 66 89.5 92t171.5 28zM471 672q-44 14 -113 14t-113 -14q-81 -28 -98 -147q-8 -59 -8 -152t8 -152q18 -118 98 -146q40 -13 113 -13t113 13q81 28 99 146q8 59 8 152t-8 152q-18 119 -99 147z" />
    <glyph glyph-name="omacron" unicode="&#x14d;" horiz-adv-x="559" 
d="M156 690h247q12 0 12 -13v-32q0 -13 -12 -13h-247q-13 0 -13 13v32q0 13 13 13zM502 271q0 -91 -9 -139.5t-34 -80.5q-24 -32 -64.5 -44t-115.5 -12q-137 0 -180 54q-42 55 -42 222t42 221q43 54 180 54t180 -54q43 -53 43 -221zM279 482q-94 0 -123 -41
q-27 -41 -27 -170q0 -131 27 -171q29 -41 123 -41q96 0 123 41q28 40 28 171q0 130 -28 170q-27 41 -123 41z" />
    <glyph glyph-name="Obreve" unicode="&#x14e;" horiz-adv-x="717" 
d="M463 938h25q14 0 12 -14q-9 -65 -39 -91q-30 -24 -103 -24t-103 24q-29 26 -38 91q-2 14 12 14h25q11 0 14 -11q11 -36 29.5 -49.5t60.5 -13.5t61 13.5t30 49.5q3 11 14 11zM358 753q138 0 208 -49q51 -40 69.5 -115.5t19.5 -215.5q0 -117 -13 -185.5t-46 -113.5
q-33 -44 -88 -61.5t-150 -17.5t-149.5 17.5t-87.5 61.5q-33 45 -46 113.5t-13 185.5q0 175 35 260q30 66 89.5 92t171.5 28zM471 672q-44 14 -113 14t-113 -14q-81 -28 -98 -147q-8 -59 -8 -152t8 -152q18 -118 98 -146q40 -13 113 -13t113 13q81 28 99 146q8 59 8 152
t-8 152q-18 119 -99 147z" />
    <glyph glyph-name="obreve" unicode="&#x14f;" horiz-adv-x="559" 
d="M384 738h25q14 0 12 -14q-9 -65 -39 -91q-30 -24 -103 -24t-103 24q-29 26 -38 91q-2 14 12 14h25q11 0 14 -11q11 -36 29.5 -49.5t60.5 -13.5t61 13.5t30 49.5q3 11 14 11zM502 271q0 -91 -9 -139.5t-34 -80.5q-24 -32 -64.5 -44t-115.5 -12q-137 0 -180 54
q-42 55 -42 222t42 221q43 54 180 54t180 -54q43 -53 43 -221zM279 482q-94 0 -123 -41q-27 -41 -27 -170q0 -131 27 -171q29 -41 123 -41q96 0 123 41q28 40 28 171q0 130 -28 170q-27 41 -123 41z" />
    <glyph glyph-name="Ohungarumlaut" unicode="&#x150;" horiz-adv-x="717" 
d="M332 948h63q9 0 9 -9v-8q0 -5 -4 -10l-124 -120q-7 -5 -13 -1l-14 11q-7 4 -2 12l74 119q3 6 11 6zM500 948h63q9 0 9 -9v-8q0 -5 -5 -10l-124 -120q-5 -5 -12 -1l-14 11q-7 4 -2 12l74 119q3 6 11 6zM358 753q138 0 208 -49q51 -40 69.5 -115.5t19.5 -215.5
q0 -117 -13 -185.5t-46 -113.5q-33 -44 -88 -61.5t-150 -17.5t-149.5 17.5t-87.5 61.5q-33 45 -46 113.5t-13 185.5q0 175 35 260q30 66 89.5 92t171.5 28zM471 672q-44 14 -113 14t-113 -14q-81 -28 -98 -147q-8 -59 -8 -152t8 -152q18 -118 98 -146q40 -13 113 -13t113 13
q81 28 99 146q8 59 8 152t-8 152q-18 119 -99 147z" />
    <glyph glyph-name="ohungarumlaut" unicode="&#x151;" horiz-adv-x="559" 
d="M251 748h63q9 0 9 -9v-8q0 -5 -5 -10l-124 -120q-5 -5 -12 -1l-14 11q-7 4 -2 12l74 119q3 6 11 6zM418 748h64q9 0 9 -9v-8q0 -5 -5 -10l-124 -120q-6 -6 -12 -1l-14 11q-8 5 -3 12l75 119q3 6 10 6zM502 271q0 -91 -9 -139.5t-34 -80.5q-24 -32 -64.5 -44t-115.5 -12
q-137 0 -180 54q-42 55 -42 222t42 221q43 54 180 54t180 -54q43 -53 43 -221zM279 482q-94 0 -123 -41q-27 -41 -27 -170q0 -131 27 -171q29 -41 123 -41q96 0 123 41q28 40 28 171q0 130 -28 170q-27 41 -123 41z" />
    <glyph glyph-name="OE.001" unicode="&#x152;" horiz-adv-x="1029" 
d="M358 753l340 -5h268q13 0 13 -12v-42q0 -13 -13 -13h-386v-287h350q13 0 13 -12v-42q0 -13 -13 -13h-350v-260h386q13 0 13 -12v-42q0 -13 -13 -13h-268l-340 -5q-91 -1 -147 16t-90 62.5t-46.5 115.5t-12.5 184q0 117 13 186t45 114q33 46 89 64t149 16zM504 62v624
h-146q-74 0 -115 -14.5t-64 -52.5q-23 -37 -31.5 -91.5t-8.5 -154.5q0 -99 8.5 -153.5t31.5 -92.5q23 -37 64 -51t115 -14h146z" />
    <glyph glyph-name="oe" unicode="&#x153;" horiz-adv-x="907" 
d="M648 546q128 0 169 -51q43 -52 44 -206v-29q0 -15 -5.5 -20t-25.5 -5h-327q1 -107 30 -141q29 -35 115 -35h157q13 0 13 -13v-31q0 -11 -12 -13q-62 -7 -158 -7q-76 0 -118 15.5t-64 51.5q-23 -36 -66 -51.5t-120 -15.5q-136 0 -180 54q-43 55 -43 222t43 220
q43 55 180 55q78 0 120.5 -15t65.5 -52q22 36 64 51.5t118 15.5zM403 441q-27 41 -123 41t-123 -41t-27 -170q0 -131 27 -171q27 -41 123 -41t123 41q27 40 27 171q0 129 -27 170zM648 482q-89 0 -116 -36q-28 -35 -29 -146h286q-1 112 -29 147q-26 35 -112 35z" />
    <glyph glyph-name="Racute" unicode="&#x154;" horiz-adv-x="645" 
d="M347 948h63q9 0 9 -9v-8q0 -5 -4 -10l-124 -120q-7 -5 -13 -1l-14 11q-7 4 -2 12l74 119q3 6 11 6zM290 753q139 0 203 -24q55 -20 75.5 -67.5t23.5 -145.5q0 -122 -37 -169q-37 -48 -131 -58l171 -272q5 -7 2.5 -12t-12.5 -5h-44q-21 0 -34 18l-168 266l-175 -1v-270
q0 -13 -13 -13h-51q-13 0 -13 13v722q0 12 13 13q88 5 190 5zM285 686h-121v-335h121q53 0 70 1q73 2 98 14q41 19 49 48q14 42 14 101q0 62 -10 94t-39 49q-27 18 -68 23q-43 5 -114 5z" />
    <glyph glyph-name="racute" unicode="&#x155;" horiz-adv-x="350" 
d="M234 748h63q9 0 9 -9v-8q0 -6 -4 -10l-124 -120q-6 -6 -12 -1l-14 11q-8 5 -3 12l74 119q3 6 11 6zM218 546q78 0 104 -9q12 -5 12 -14v-29q0 -13 -13 -12h-87q-49 0 -68.5 -12t-19.5 -45v-412q0 -13 -13 -13h-47q-13 0 -13 13v427q0 58 37 83q15 10 38 15q32 8 70 8z
" />
    <glyph glyph-name="uni0156" unicode="&#x156;" horiz-adv-x="645" 
d="M290 753q139 0 203 -24q55 -20 75.5 -67.5t23.5 -145.5q0 -122 -37 -169q-37 -48 -131 -58l171 -272q5 -7 2.5 -12t-12.5 -5h-44q-21 0 -34 18l-168 266l-175 -1v-270q0 -13 -13 -13h-51q-13 0 -13 13v722q0 12 13 13q88 5 190 5zM285 686h-121v-335h121q53 0 70 1
q73 2 98 14q41 19 49 48q14 42 14 101q0 62 -10 94t-39 49q-27 18 -68 23q-43 5 -114 5zM302 -38h56q9 0 9 -9v-7q0 -6 -5 -11l-116 -120q-6 -6 -12 0l-14 10q-7 6 -3 13l75 119q3 5 10 5z" />
    <glyph glyph-name="uni0157" unicode="&#x157;" horiz-adv-x="350" 
d="M218 546q78 0 104 -9q12 -5 12 -14v-29q0 -13 -13 -12h-87q-49 0 -68.5 -12t-19.5 -45v-412q0 -13 -13 -13h-47q-13 0 -13 13v427q0 58 37 83q15 10 38 15q32 8 70 8zM81 -38h55q9 0 9 -9v-7q0 -7 -4 -11l-117 -120q-4 -5 -12 0l-14 10q-6 6 -2 13l74 119q3 5 11 5z" />
    <glyph glyph-name="Rcaron" unicode="&#x158;" horiz-adv-x="645" 
d="M425 945l14 -10q7 -7 2 -13l-89 -118q-4 -6 -14 -6h-30q-10 0 -14 6l-89 118q-5 6 2 13l14 10q7 4 13 0l89 -80l89 80q6 4 13 0zM290 753q139 0 203 -24q55 -20 75.5 -67.5t23.5 -145.5q0 -122 -37 -169q-37 -48 -131 -58l171 -272q5 -7 2.5 -12t-12.5 -5h-44
q-21 0 -34 18l-168 266l-175 -1v-270q0 -13 -13 -13h-51q-13 0 -13 13v722q0 12 13 13q88 5 190 5zM285 686h-121v-335h121q53 0 70 1q73 2 98 14q41 19 49 48q14 42 14 101q0 62 -10 94t-39 49q-27 18 -68 23q-43 5 -114 5z" />
    <glyph glyph-name="rcaron" unicode="&#x159;" horiz-adv-x="350" 
d="M276 745l14 -10q7 -7 2 -13l-89 -118q-5 -6 -14 -6h-30q-9 0 -14 6l-89 118q-5 6 2 13l14 10q6 4 13 0l89 -80l89 80q7 4 13 0zM218 546q78 0 104 -9q12 -5 12 -14v-29q0 -13 -13 -12h-87q-49 0 -68.5 -12t-19.5 -45v-412q0 -13 -13 -13h-47q-13 0 -13 13v427q0 58 37 83
q15 10 38 15q32 8 70 8z" />
    <glyph glyph-name="Sacute" unicode="&#x15a;" horiz-adv-x="595" 
d="M351 948h64q8 0 8 -9v-8q0 -6 -4 -10l-124 -120q-6 -6 -12 -1l-14 11q-7 5 -3 12l75 119q3 6 10 6zM307 753q94 0 195 -10q11 -2 11 -11v-34q0 -12 -10 -12h-221q-76 0 -111.5 -24t-35.5 -77v-16q0 -45 17 -69t65 -44l228 -96q60 -26 83.5 -67t23.5 -102v-30
q0 -85 -51 -125q-23 -17 -58 -27q-56 -14 -143 -14q-135 0 -243 11q-10 0 -10 12v33q0 11 12 11h265q78 0 115 22.5t37 77.5v22q0 42 -17 71t-61 48l-245 101q-38 16 -61 42q-21 26 -27.5 52t-6.5 68v22q0 80 47 120q61 45 202 45z" />
    <glyph glyph-name="sacute" unicode="&#x15b;" horiz-adv-x="474" 
d="M262 748h63q9 0 9 -9v-8q0 -6 -4 -10l-124 -120q-7 -5 -13 -1l-13 11q-8 5 -3 12l74 119q3 6 11 6zM241 546q98 0 155 -7q12 -1 12 -13v-31q0 -13 -13 -13h-182q-87 0 -87 -60v-16q0 -28 15 -47t52 -34l141 -57q56 -23 75.5 -53t19.5 -81v-12q0 -76 -44 -102
q-43 -25 -152 -25q-105 0 -174 8q-12 1 -12 12v31q0 13 12 13h176q72 0 97 12.5t25 50.5v13q0 27 -13.5 44t-46.5 31l-150 60q-93 38 -93 137v22q0 60 40 88q15 11 44 19q40 10 103 10z" />
    <glyph glyph-name="Scircumflex" unicode="&#x15c;" horiz-adv-x="595" 
d="M285 948h30q10 0 14 -7l90 -118q5 -6 -3 -12l-14 -11q-6 -5 -12 1l-90 80l-89 -80q-6 -6 -12 -1l-14 11q-7 5 -3 12l90 118q4 7 13 7zM307 753q94 0 195 -10q11 -2 11 -11v-34q0 -12 -10 -12h-221q-76 0 -111.5 -24t-35.5 -77v-16q0 -45 17 -69t65 -44l228 -96
q60 -26 83.5 -67t23.5 -102v-30q0 -85 -51 -125q-23 -17 -58 -27q-56 -14 -143 -14q-135 0 -243 11q-10 0 -10 12v33q0 11 12 11h265q78 0 115 22.5t37 77.5v22q0 42 -17 71t-61 48l-245 101q-38 16 -61 42q-21 26 -27.5 52t-6.5 68v22q0 80 47 120q61 45 202 45z" />
    <glyph glyph-name="scircumflex" unicode="&#x15d;" horiz-adv-x="474" 
d="M223 748h30q10 0 14 -7l90 -118q5 -6 -3 -12l-14 -11q-6 -5 -12 1l-90 80l-89 -80q-6 -6 -12 -1l-14 11q-7 5 -3 12l90 118q4 7 13 7zM241 546q98 0 155 -7q12 -1 12 -13v-31q0 -13 -13 -13h-182q-87 0 -87 -60v-16q0 -28 15 -47t52 -34l141 -57q56 -23 75.5 -53
t19.5 -81v-12q0 -76 -44 -102q-43 -25 -152 -25q-105 0 -174 8q-12 1 -12 12v31q0 13 12 13h176q72 0 97 12.5t25 50.5v13q0 27 -13.5 44t-46.5 31l-150 60q-93 38 -93 137v22q0 60 40 88q15 11 44 19q40 10 103 10z" />
    <glyph glyph-name="Scedilla" unicode="&#x15e;" horiz-adv-x="595" 
d="M307 753q76 0 195 -10q11 -2 11 -11v-34q0 -12 -10 -12h-221q-76 0 -111.5 -24t-35.5 -77v-16q0 -45 17 -69t65 -44l228 -96q60 -26 83.5 -67t23.5 -102v-30q0 -85 -47 -121.5t-142 -42.5q13 -45 13 -83q0 -43 -20 -59.5t-67 -16.5q-30 0 -54 7q-11 5 -11 16v25
q0 13 13 13h38q29 0 38.5 6.5t9.5 29.5q0 17 -10 60h-13q-134 0 -242 11q-11 0 -11 12v33q0 11 12 11h265q78 0 115 22.5t37 77.5v22q0 42 -17 71t-61 48l-245 101q-38 16 -61 42q-21 26 -27.5 52t-6.5 68v22q0 80 47 120q61 45 202 45z" />
    <glyph glyph-name="scedilla" unicode="&#x15f;" horiz-adv-x="474" 
d="M193 325l141 -57q56 -23 75.5 -53t19.5 -81v-12q0 -63 -29 -91t-99 -34q13 -45 13 -83q0 -43 -20 -59.5t-68 -16.5q-29 0 -53 7q-11 5 -11 16v25q0 13 13 13h38q29 0 38.5 6.5t9.5 29.5q0 19 -10 60h-18q-105 0 -174 8q-12 1 -12 12v31q0 13 12 13h176q72 0 97 12.5
t25 50.5v13q0 27 -13.5 44t-46.5 31l-150 60q-93 38 -93 137v22q0 60 40 88q15 11 44 19q40 10 103 10q98 0 155 -7q12 -1 12 -13v-31q0 -13 -13 -13h-182q-87 0 -87 -60v-16q0 -28 15 -47t52 -34z" />
    <glyph glyph-name="Scaron" unicode="&#x160;" horiz-adv-x="595" 
d="M402 945l14 -10q7 -7 3 -13l-90 -118q-5 -6 -14 -6h-30q-10 0 -13 6l-90 118q-4 7 3 13l14 10q6 6 12 0l89 -80l90 80q6 6 12 0zM307 753q94 0 195 -10q11 -2 11 -11v-34q0 -12 -10 -12h-221q-76 0 -111.5 -24t-35.5 -77v-16q0 -45 17 -69t65 -44l228 -96
q60 -26 83.5 -67t23.5 -102v-30q0 -85 -51 -125q-23 -17 -58 -27q-56 -14 -143 -14q-135 0 -243 11q-10 0 -10 12v33q0 11 12 11h265q78 0 115 22.5t37 77.5v22q0 42 -17 71t-61 48l-245 101q-38 16 -61 42q-21 26 -27.5 52t-6.5 68v22q0 80 47 120q61 45 202 45z" />
    <glyph glyph-name="scaron" unicode="&#x161;" horiz-adv-x="474" 
d="M340 745l14 -10q7 -7 3 -13l-90 -118q-5 -6 -14 -6h-30q-10 0 -13 6l-90 118q-4 7 3 13l14 10q6 6 12 0l89 -80l90 80q6 6 12 0zM241 546q98 0 155 -7q12 -1 12 -13v-31q0 -13 -13 -13h-182q-87 0 -87 -60v-16q0 -28 15 -47t52 -34l141 -57q56 -23 75.5 -53t19.5 -81v-12
q0 -76 -44 -102q-43 -25 -152 -25q-105 0 -174 8q-12 1 -12 12v31q0 13 12 13h176q72 0 97 12.5t25 50.5v13q0 27 -13.5 44t-46.5 31l-150 60q-93 38 -93 137v22q0 60 40 88q15 11 44 19q40 10 103 10z" />
    <glyph glyph-name="uni0162" unicode="&#x162;" horiz-adv-x="599" 
d="M27 748h546q12 0 12 -12v-42q0 -13 -12 -13h-235v-667q14 -82 14 -100q0 -43 -20 -59.5t-68 -16.5q-29 0 -53 7q-11 5 -11 16v25q0 13 13 13h38q29 0 38 6.5t9 29.5q0 24 -10 65h-14q-12 0 -12 12v669h-235q-13 0 -13 13v42q0 12 13 12z" />
    <glyph glyph-name="uni0163" unicode="&#x163;" horiz-adv-x="320" 
d="M234 59h53q14 0 14 -12v-34q0 -10 -12 -13q-23 -5 -54 -5h-4q12 -48 12 -81q0 -43 -19.5 -59.5t-67.5 -16.5q-27 0 -54 7q-10 4 -10 16v25q0 13 13 13h38q29 0 38 6.5t9 29.5q0 20 -10 63q-42 6 -63 29.5t-21 72.5v381h-56q-13 0 -13 12v35q0 13 13 13h56v127q0 10 11 13
l47 11q15 5 15 -11v-140h111q13 0 13 -13v-35q0 -12 -13 -12h-111v-366q0 -34 12.5 -45t52.5 -11z" />
    <glyph glyph-name="Tcaron" unicode="&#x164;" horiz-adv-x="599" 
d="M402 945l14 -10q7 -7 2 -13l-89 -118q-5 -6 -14 -6h-30q-9 0 -14 6l-89 118q-5 6 2 13l14 10q6 4 13 0l89 -80l89 80q7 4 13 0zM27 748h546q12 0 12 -12v-42q0 -13 -12 -13h-235v-668q0 -13 -13 -13h-50q-13 0 -13 13v668h-235q-13 0 -13 13v42q0 12 13 12z" />
    <glyph glyph-name="tcaron" unicode="&#x165;" horiz-adv-x="341" 
d="M302 748h58q9 0 9 -9v-8q0 -6 -4 -10l-91 -120q-4 -7 -12 -1l-14 11q-6 5 -3 12l46 118q1 7 11 7zM107 681l47 11q15 5 15 -11v-140h111q13 0 13 -13v-35q0 -12 -13 -12h-111v-366q0 -34 12.5 -45t52.5 -11h53q14 0 14 -12v-34q0 -10 -12 -13q-23 -5 -54 -5q-51 0 -79 8
q-60 19 -60 97v381h-56q-13 0 -13 12v35q0 13 13 13h56v127q0 10 11 13z" />
    <glyph glyph-name="Tbar" unicode="&#x166;" horiz-adv-x="615" 
d="M35 748h546q12 0 12 -12v-42q0 -13 -12 -13h-235v-261h150q13 0 13 -13v-32q0 -13 -13 -13h-150v-349q0 -13 -13 -13h-50q-13 0 -13 13v349h-151q-12 0 -12 12v33q0 13 12 13h151v261h-235q-13 0 -13 13v42q0 12 13 12z" />
    <glyph glyph-name="tbar" unicode="&#x167;" horiz-adv-x="321" 
d="M235 59h53q14 0 14 -12v-34q0 -10 -12 -13q-23 -5 -54 -5q-51 0 -79 8q-60 19 -60 97v170h-37q-13 0 -13 12v33q0 12 13 12h37v154h-56q-13 0 -13 12v35q0 13 13 13h56v127q0 10 11 13l47 11q15 5 15 -11v-140h111q13 0 13 -13v-35q0 -12 -13 -12h-111v-154h87
q13 0 13 -12v-33q0 -12 -13 -12h-87v-155q0 -34 12.5 -45t52.5 -11z" />
    <glyph glyph-name="Utilde" unicode="&#x168;" horiz-adv-x="738" 
d="M302 927q21 0 69 -23q45 -22 62 -22q20 0 29.5 7.5t18.5 30.5q4 8 6.5 10t9.5 0l18 -4q13 -4 9 -20q-16 -53 -33.5 -71t-54.5 -18q-24 0 -69 22q-48 23 -63 23q-19 0 -28 -8t-19 -31q-6 -13 -16 -10l-18 5q-13 4 -9 19q16 54 33.5 72t54.5 18zM594 748h51q13 0 13 -12
v-363q0 -121 -12.5 -189.5t-45.5 -112.5q-33 -43 -86 -59.5t-145 -16.5t-145 16.5t-86 59.5q-33 44 -45.5 112.5t-12.5 189.5v363q0 12 12 12h51q13 0 13 -12v-363q0 -99 9.5 -155.5t33.5 -92.5t63 -49.5t107 -13.5t107 13.5t63 49.5t33.5 92.5t9.5 155.5v363q0 8 2 10t10 2
z" />
    <glyph glyph-name="utilde" unicode="&#x169;" horiz-adv-x="582" 
d="M223 727q21 0 69 -23q45 -22 62 -22q20 0 29.5 7.5t18.5 30.5q4 8 6.5 10t9.5 0l18 -4q13 -4 9 -20q-16 -53 -33.5 -71t-54.5 -18q-24 0 -69 22q-48 23 -62 23q-19 0 -28.5 -8t-19.5 -31q-4 -8 -6.5 -10t-9.5 0l-18 5q-13 4 -9 19q16 52 34 72q17 18 54 18zM448 541h47
q13 0 13 -13v-506q0 -7 -2 -9t-11 -4q-81 -14 -202 -14q-72 0 -107.5 7t-64.5 29q-28 23 -39 67t-11 125v305q0 13 14 13h46q13 0 13 -13v-304q0 -114 32 -141q18 -15 39 -19.5t66 -4.5h154v469q0 13 13 13z" />
    <glyph glyph-name="Umacron" unicode="&#x16a;" horiz-adv-x="738" 
d="M245 890h247q13 0 13 -13v-32q0 -13 -13 -13h-247q-13 0 -13 13v32q0 13 13 13zM594 748h51q13 0 13 -12v-363q0 -121 -12.5 -189.5t-45.5 -112.5q-33 -43 -86 -59.5t-145 -16.5t-145 16.5t-86 59.5q-33 44 -45.5 112.5t-12.5 189.5v363q0 12 12 12h51q13 0 13 -12v-363
q0 -99 9.5 -155.5t33.5 -92.5t63 -49.5t107 -13.5t107 13.5t63 49.5t33.5 92.5t9.5 155.5v363q0 8 2 10t10 2z" />
    <glyph glyph-name="umacron" unicode="&#x16b;" horiz-adv-x="582" 
d="M166 690h247q13 0 13 -13v-32q0 -13 -13 -13h-247q-13 0 -13 13v32q0 13 13 13zM448 541h47q13 0 13 -13v-506q0 -7 -2 -9t-11 -4q-81 -14 -202 -14q-72 0 -107.5 7t-64.5 29q-28 23 -39 67t-11 125v305q0 13 14 13h46q13 0 13 -13v-304q0 -114 32 -141q18 -15 39 -19.5
t66 -4.5h154v469q0 13 13 13z" />
    <glyph glyph-name="Ubreve" unicode="&#x16c;" horiz-adv-x="738" 
d="M473 938h25q14 0 12 -14q-9 -65 -39 -91q-29 -24 -102 -24t-103 24q-31 26 -38 91q-3 14 11 14h25q11 0 14 -11q11 -36 30 -49.5t61 -13.5t60.5 13.5t29.5 49.5q5 11 14 11zM594 748h51q13 0 13 -12v-363q0 -121 -12.5 -189.5t-45.5 -112.5q-33 -43 -86 -59.5t-145 -16.5
t-145 16.5t-86 59.5q-33 44 -45.5 112.5t-12.5 189.5v363q0 12 12 12h51q13 0 13 -12v-363q0 -99 9.5 -155.5t33.5 -92.5t63 -49.5t107 -13.5t107 13.5t63 49.5t33.5 92.5t9.5 155.5v363q0 8 2 10t10 2z" />
    <glyph glyph-name="ubreve" unicode="&#x16d;" horiz-adv-x="582" 
d="M395 738h24q15 0 12 -14q-9 -65 -39 -91q-28 -24 -102 -24q-73 0 -103 24q-29 26 -38 91q-3 14 12 14h24q10 0 15 -11q11 -36 29.5 -49.5t60.5 -13.5t60.5 13.5t29.5 49.5q5 11 15 11zM448 541h47q13 0 13 -13v-506q0 -7 -2 -9t-11 -4q-81 -14 -202 -14q-72 0 -107.5 7
t-64.5 29q-28 23 -39 67t-11 125v305q0 13 14 13h46q13 0 13 -13v-304q0 -114 32 -141q18 -15 39 -19.5t66 -4.5h154v469q0 13 13 13z" />
    <glyph glyph-name="Uring" unicode="&#x16e;" horiz-adv-x="738" 
d="M369 995q100 0 100 -97t-100 -97q-101 0 -101 97t101 97zM431 898q0 62 -62 62t-62 -62t62 -62t62 62zM594 748h51q13 0 13 -12v-363q0 -121 -12.5 -189.5t-45.5 -112.5q-33 -43 -86 -59.5t-145 -16.5t-145 16.5t-86 59.5q-33 44 -45.5 112.5t-12.5 189.5v363q0 12 12 12
h51q13 0 13 -12v-363q0 -99 9.5 -155.5t33.5 -92.5t63 -49.5t107 -13.5t107 13.5t63 49.5t33.5 92.5t9.5 155.5v363q0 8 2 10t10 2z" />
    <glyph glyph-name="uring" unicode="&#x16f;" horiz-adv-x="582" 
d="M189 698q0 97 101 97t101 -97t-101 -97t-101 97zM352 698q0 62 -62 62t-62 -62t62 -62t62 62zM448 541h47q13 0 13 -13v-506q0 -7 -2 -9t-11 -4q-81 -14 -202 -14q-72 0 -107.5 7t-64.5 29q-28 23 -39 67t-11 125v305q0 13 14 13h46q13 0 13 -13v-304q0 -114 32 -141
q18 -15 39 -19.5t66 -4.5h154v469q0 13 13 13z" />
    <glyph glyph-name="Uhungarumlaut" unicode="&#x170;" horiz-adv-x="738" 
d="M317 948h63q9 0 9 -9v-8q0 -6 -4 -10l-124 -120q-6 -6 -12 -1l-14 11q-7 5 -3 12l74 119q3 6 11 6zM485 948h63q9 0 9 -9v-8q0 -6 -4 -10l-124 -120q-7 -5 -13 -1l-14 11q-7 4 -2 12l74 119q3 6 11 6zM594 748h51q13 0 13 -12v-363q0 -121 -12.5 -189.5t-45.5 -112.5
q-33 -43 -86 -59.5t-145 -16.5t-145 16.5t-86 59.5q-33 44 -45.5 112.5t-12.5 189.5v363q0 12 12 12h51q13 0 13 -12v-363q0 -99 9.5 -155.5t33.5 -92.5t63 -49.5t107 -13.5t107 13.5t63 49.5t33.5 92.5t9.5 155.5v363q0 8 2 10t10 2z" />
    <glyph glyph-name="uhungarumlaut" unicode="&#x171;" horiz-adv-x="582" 
d="M249 748h63q9 0 9 -9v-8q0 -5 -5 -10l-124 -120q-5 -5 -12 -1l-14 11q-7 4 -2 12l74 119q3 6 11 6zM416 748h64q9 0 9 -9v-8q0 -5 -5 -10l-124 -120q-6 -6 -12 -1l-14 11q-8 5 -3 12l75 119q3 6 10 6zM448 541h47q13 0 13 -13v-506q0 -7 -2 -9t-11 -4q-81 -14 -202 -14
q-72 0 -107.5 7t-64.5 29q-28 23 -39 67t-11 125v305q0 13 14 13h46q13 0 13 -13v-304q0 -114 32 -141q18 -15 39 -19.5t66 -4.5h154v469q0 13 13 13z" />
    <glyph glyph-name="Uogonek" unicode="&#x172;" horiz-adv-x="738" 
d="M594 748h51q13 0 13 -12v-363q0 -216 -53 -295q-52 -78 -205 -82q-10 -37 -10 -61q0 -23 9 -29.5t39 -6.5h37q13 0 13 -13v-25q0 -12 -10 -16q-24 -7 -54 -7q-48 0 -67.5 16.5t-19.5 59.5q0 35 11 81q-86 2 -135 20t-79 61q-30 44 -42 112t-12 185v363q0 12 12 12h51
q13 0 13 -12v-363q0 -99 9.5 -155.5t33.5 -92.5t63 -49.5t107 -13.5t107 13.5t63 49.5t33.5 92.5t9.5 155.5v363q0 8 2 10t10 2z" />
    <glyph glyph-name="uogonek" unicode="&#x173;" horiz-adv-x="582" 
d="M448 541h47q13 0 13 -13v-506q0 -7 -2 -9t-11 -4q-36 -6 -68 -9q-10 -36 -10 -65q0 -23 9 -29.5t38 -6.5h38q13 0 13 -13v-25q0 -11 -11 -16q-24 -7 -53 -7q-48 0 -68 16.5t-20 59.5q0 38 13 83q-42 -2 -83 -2q-72 0 -107.5 7t-64.5 29q-28 23 -39 67t-11 125v305
q0 13 14 13h46q13 0 13 -13v-304q0 -114 32 -141q18 -15 39 -19.5t66 -4.5h154v469q0 13 13 13z" />
    <glyph glyph-name="Wcircumflex" unicode="&#x174;" horiz-adv-x="1074" 
d="M522 948h30q10 0 14 -7l90 -118q4 -6 -3 -12l-14 -11q-6 -5 -12 1l-90 80l-89 -80q-6 -6 -12 -1l-14 11q-8 5 -3 12l90 118q3 7 13 7zM970 748h58q8 0 9.5 -2t0.5 -11l-146 -625q-16 -75 -37 -96q-19 -19 -79 -19q-66 0 -85 19t-37 96l-117 483l-116 -483
q-20 -78 -38 -96q-19 -19 -84 -19q-61 0 -80 19q-21 21 -37 96l-146 625q-1 8 1 10.5t10 2.5h57q5 0 7.5 -2.5t4.5 -10.5l139 -607q10 -42 18 -54t26 -12q22 0 30 11q9 12 19 55l145 576q1 13 14 13h60q11 0 15 -13l145 -576q10 -43 19 -55q8 -11 30 -11q18 0 25.5 11.5
t17.5 54.5l140 607q4 13 11 13z" />
    <glyph glyph-name="wcircumflex" unicode="&#x175;" horiz-adv-x="816" 
d="M393 748h30q10 0 14 -7l89 -118q6 -6 -3 -12l-13 -11q-8 -5 -13 1l-89 80l-90 -80q-5 -5 -12 -1l-14 11q-8 6 -2 12l89 118q4 7 14 7zM717 541h51q14 0 11 -14l-89 -412q-18 -81 -36 -100q-17 -20 -70 -20q-54 0 -70 18q-14 19 -34 102l-72 302l-72 -302
q-20 -84 -35 -102t-69 -18q-53 0 -71 20q-17 20 -35 100l-89 412q-3 14 11 14h51q8 0 11 -14l87 -407q8 -36 14.5 -46.5t19.5 -10.5q15 0 20.5 9t14.5 48l96 386q4 16 13 16h66q9 0 13 -16l96 -386q9 -39 14.5 -48t20.5 -9q13 0 19.5 10.5t14.5 46.5l87 407q3 14 11 14z" />
    <glyph glyph-name="Ycircumflex" unicode="&#x176;" horiz-adv-x="638" 
d="M304 948h30q10 0 14 -7l89 -118q6 -6 -2 -12l-14 -11q-6 -5 -12 1l-90 80l-89 -80q-6 -6 -12 -1l-14 11q-8 5 -3 12l90 118q3 7 13 7zM563 748h55q20 0 10 -18l-271 -508v-209q0 -13 -12 -13h-51q-13 0 -13 13v209l-270 508q-11 18 9 18h55q15 0 22 -13l222 -427l222 427
q7 13 22 13z" />
    <glyph glyph-name="ycircumflex" unicode="&#x177;" horiz-adv-x="581" 
d="M284 748h30q10 0 14 -7l89 -118q6 -6 -2 -12l-14 -11q-7 -4 -12 1l-90 80l-89 -80q-7 -5 -13 -1l-13 11q-9 6 -3 12l89 118q4 7 14 7zM446 541h47q13 0 13 -13v-485q0 -78 -9.5 -121.5t-34.5 -71.5q-24 -29 -65 -40t-114 -11q-77 0 -140 7q-12 2 -12 14v31q0 12 12 12
h140q92 0 120 28q30 27 30 104v8q-66 -8 -143 -8q-75 0 -115.5 12t-64.5 44q-23 32 -31.5 81t-8.5 139v257q0 13 12 13h47q13 0 13 -13v-255q0 -133 26 -174q25 -40 122 -40q76 0 143 9v460q0 13 13 13z" />
    <glyph glyph-name="Ydieresis" unicode="&#x178;" horiz-adv-x="638" 
d="M234 920q50 0 50 -49q0 -51 -50 -51q-52 0 -52 51q0 49 52 49zM405 920q51 0 51 -49q0 -51 -51 -51q-50 0 -50 51q0 49 50 49zM563 748h55q20 0 10 -18l-271 -508v-209q0 -13 -12 -13h-51q-13 0 -13 13v209l-270 508q-11 18 9 18h55q15 0 22 -13l222 -427l222 427
q7 13 22 13z" />
    <glyph glyph-name="Zacute" unicode="&#x179;" horiz-adv-x="638" 
d="M342 948h63q9 0 9 -9v-8q0 -6 -4 -10l-124 -120q-7 -5 -13 -1l-14 11q-7 4 -2 12l74 119q3 6 11 6zM56 748h527q13 0 13 -13v-33q0 -10 -6 -18l-459 -617h461q14 0 14 -12v-42q0 -13 -14 -13h-547q-13 0 -13 14l-1 31q0 11 7 18l460 618h-441q-14 0 -14 12l-1 43
q0 12 14 12z" />
    <glyph glyph-name="zacute" unicode="&#x17a;" horiz-adv-x="504" 
d="M274 748h63q9 0 9 -9v-8q0 -6 -4 -10l-124 -120q-7 -5 -13 -1l-13 11q-8 5 -3 12l74 119q3 6 11 6zM60 541h387q14 0 14 -13v-14q0 -8 -6 -17l-318 -433h319q13 0 13 -13v-38q0 -13 -13 -13h-409q-14 0 -14 13v19q0 9 7 16l313 428h-293q-14 0 -14 13v39q0 13 14 13z" />
    <glyph glyph-name="Zdotaccent" unicode="&#x17b;" horiz-adv-x="638" 
d="M368 871q0 -51 -50 -51t-50 51q0 49 50 49t50 -49zM56 748h527q13 0 13 -13v-33q0 -10 -6 -18l-459 -617h461q14 0 14 -12v-42q0 -13 -14 -13h-547q-13 0 -13 14l-1 31q0 11 7 18l460 618h-441q-14 0 -14 12l-1 43q0 12 14 12z" />
    <glyph glyph-name="zdotaccent" unicode="&#x17c;" horiz-adv-x="504" 
d="M300 671q0 -51 -50 -51t-50 51q0 49 50 49t50 -49zM60 541h387q14 0 14 -13v-14q0 -8 -6 -17l-318 -433h319q13 0 13 -13v-38q0 -13 -13 -13h-409q-14 0 -14 13v19q0 9 7 16l313 428h-293q-14 0 -14 13v39q0 13 14 13z" />
    <glyph glyph-name="Zcaron.001" unicode="&#x17d;" horiz-adv-x="638" 
d="M420 945l14 -10q7 -7 3 -13l-90 -118q-5 -6 -14 -6h-30q-10 0 -13 6l-90 118q-4 7 3 13l14 10q6 6 12 0l89 -80l90 80q6 6 12 0zM56 748h527q13 0 13 -13v-33q0 -10 -6 -18l-459 -617h461q14 0 14 -12v-42q0 -13 -14 -13h-547q-13 0 -13 14l-1 31q0 11 7 18l460 618h-441
q-14 0 -14 12l-1 43q0 12 14 12z" />
    <glyph glyph-name="zcaron.001" unicode="&#x17e;" horiz-adv-x="504" 
d="M352 745l14 -10q7 -7 3 -13l-90 -118q-5 -6 -14 -6h-30q-10 0 -13 6l-90 118q-4 7 3 13l14 10q6 6 12 0l89 -80l90 80q6 6 12 0zM60 541h387q14 0 14 -13v-14q0 -8 -6 -17l-318 -433h319q13 0 13 -13v-38q0 -13 -13 -13h-409q-14 0 -14 13v19q0 9 7 16l313 428h-293
q-14 0 -14 13v39q0 13 14 13z" />
    <glyph glyph-name="florin" unicode="&#x192;" horiz-adv-x="539" 
d="M434 754q27 0 81 -8q15 -3 13 -15l-5 -31q0 -11 -12 -11h-57q-48 0 -70.5 -11.5t-27.5 -46.5l-22 -158h123q13 0 13 -13v-34q0 -13 -13 -13h-131l-44 -313q-7 -54 -46 -83q-14 -10 -37 -16q-25 -6 -64 -6q-28 0 -82 8q-15 3 -13 15l5 31q2 11 12 11h57q49 0 71 11.5
t27 46.5l41 295h-75q-13 0 -13 14v35q0 11 13 11h84l24 176q7 57 46 82q15 11 37 15q29 8 65 8z" />
    <glyph glyph-name="uni01CD" unicode="&#x1cd;" horiz-adv-x="660" 
d="M430 945l14 -10q7 -7 2 -13l-89 -118q-5 -6 -14 -6h-30q-9 0 -14 6l-89 118q-4 6 3 13l13 10q7 6 13 0l89 -80l90 80q4 5 12 0zM328 753q68 0 88 -19q21 -20 42 -96l171 -624q3 -14 -10 -14h-57q-8 0 -11 13l-65 231h-314l-66 -231q-4 -13 -12 -13h-57q-13 0 -10 14
l177 624q21 75 42 95q22 20 82 20zM327 686q-23 0 -31 -11q-9 -12 -20 -55l-86 -308h277l-83 308q-12 44 -21 55q-8 11 -36 11z" />
    <glyph glyph-name="uni01CE" unicode="&#x1ce;" horiz-adv-x="524" 
d="M357 745l14 -10q7 -7 2 -13l-89 -118q-4 -6 -14 -6h-30q-10 0 -13 6l-90 118q-4 7 3 13l14 10q6 6 12 0l89 -80l90 80q6 6 12 0zM233 546q111 0 165.5 -36.5t54.5 -118.5v-350q0 -19 -18 -26q-54 -20 -213 -20q-102 0 -142 33q-41 35 -41 125q0 79 40 113.5t127 34.5h175
v79q0 54 -35.5 78t-112.5 24h-135q-13 0 -13 13v28q0 11 12 14q62 9 136 9zM381 71v167h-175q-50 0 -72.5 -19.5t-22.5 -65.5q0 -55 27.5 -75t99.5 -20q95 0 143 13z" />
    <glyph glyph-name="uni01CF" unicode="&#x1cf;" horiz-adv-x="250" 
d="M225 945l14 -10q7 -7 3 -13l-90 -118q-5 -6 -14 -6h-30q-10 0 -13 6l-90 118q-4 7 3 13l14 10q6 6 12 0l89 -80l90 80q6 6 12 0zM99 748h51q13 0 13 -12v-723q0 -13 -13 -13h-51q-12 0 -12 13v723q0 12 12 12z" />
    <glyph glyph-name="uni01D0" unicode="&#x1d0;" horiz-adv-x="223" 
d="M213 745l14 -10q7 -7 2 -13l-89 -118q-5 -6 -14 -6h-30q-10 0 -14 6l-89 118q-5 6 2 13l14 10q7 4 13 0l89 -80l89 80q7 4 13 0zM88 541h47q13 0 13 -13v-515q0 -13 -13 -13h-47q-13 0 -13 13v515q0 13 13 13z" />
    <glyph glyph-name="uni01D1" unicode="&#x1d1;" horiz-adv-x="717" 
d="M460 945l14 -10q7 -7 3 -13l-90 -118q-5 -6 -14 -6h-30q-10 0 -13 6l-90 118q-4 7 3 13l14 10q6 6 12 0l89 -80l90 80q6 6 12 0zM358 753q138 0 208 -49q51 -40 69.5 -115.5t19.5 -215.5q0 -117 -13 -185.5t-46 -113.5q-33 -44 -88 -61.5t-150 -17.5t-149.5 17.5
t-87.5 61.5q-33 45 -46 113.5t-13 185.5q0 175 35 260q30 66 89.5 92t171.5 28zM471 672q-44 14 -113 14t-113 -14q-81 -28 -98 -147q-8 -59 -8 -152t8 -152q18 -118 98 -146q40 -13 113 -13t113 13q81 28 99 146q8 59 8 152t-8 152q-18 119 -99 147z" />
    <glyph glyph-name="uni01D2" unicode="&#x1d2;" horiz-adv-x="559" 
d="M381 745l14 -10q7 -7 3 -13l-90 -118q-4 -6 -14 -6h-29q-10 0 -14 6l-90 118q-4 6 3 13l14 10q6 6 12 0l89 -80l90 80q6 6 12 0zM502 271q0 -91 -9 -139.5t-34 -80.5q-24 -32 -64.5 -44t-115.5 -12q-137 0 -180 54q-42 55 -42 222t42 221q43 54 180 54t180 -54
q43 -53 43 -221zM279 482q-94 0 -123 -41q-27 -41 -27 -170q0 -131 27 -171q29 -41 123 -41q96 0 123 41q28 40 28 171q0 130 -28 170q-27 41 -123 41z" />
    <glyph glyph-name="uni01D3" unicode="&#x1d3;" horiz-adv-x="738" 
d="M471 945l13 -10q7 -7 3 -13l-89 -118q-4 -6 -14 -6h-30q-10 0 -14 6l-89 118q-5 6 2 13l14 10q7 5 12 0l90 -80l89 80q6 6 13 0zM594 748h51q13 0 13 -12v-363q0 -121 -12.5 -189.5t-45.5 -112.5q-33 -43 -86 -59.5t-145 -16.5t-145 16.5t-86 59.5q-33 44 -45.5 112.5
t-12.5 189.5v363q0 12 12 12h51q13 0 13 -12v-363q0 -99 9.5 -155.5t33.5 -92.5t63 -49.5t107 -13.5t107 13.5t63 49.5t33.5 92.5t9.5 155.5v363q0 8 2 10t10 2z" />
    <glyph glyph-name="uni01D4" unicode="&#x1d4;" horiz-adv-x="582" 
d="M392 745l14 -10q7 -7 2 -13l-89 -118q-5 -6 -14 -6h-30q-9 0 -14 6l-89 118q-5 6 2 13l14 10q6 4 13 0l89 -80l89 80q7 4 13 0zM448 541h47q13 0 13 -13v-506q0 -7 -2 -9t-11 -4q-81 -14 -202 -14q-72 0 -107.5 7t-64.5 29q-28 23 -39 67t-11 125v305q0 13 14 13h46
q13 0 13 -13v-304q0 -114 32 -141q18 -15 39 -19.5t66 -4.5h154v469q0 13 13 13z" />
    <glyph glyph-name="uni01D5" unicode="&#x1d5;" horiz-adv-x="738" 
d="M245 1034h247q13 0 13 -13v-32q0 -13 -13 -13h-247q-13 0 -13 13v32q0 13 13 13zM283 920q50 0 50 -49q0 -51 -50 -51q-51 0 -51 51q0 49 51 49zM506 871q0 -51 -51 -51t-51 51q0 49 51 49t51 -49zM594 748h51q13 0 13 -12v-363q0 -121 -12.5 -189.5t-45.5 -112.5
q-33 -43 -86 -59.5t-145 -16.5t-145 16.5t-86 59.5q-33 44 -45.5 112.5t-12.5 189.5v363q0 12 12 12h51q13 0 13 -12v-363q0 -99 9.5 -155.5t33.5 -92.5t63 -49.5t107 -13.5t107 13.5t63 49.5t33.5 92.5t9.5 155.5v363q0 8 2 10t10 2z" />
    <glyph glyph-name="uni01D6" unicode="&#x1d6;" horiz-adv-x="582" 
d="M166 827h247q13 0 13 -13v-33q0 -12 -13 -12h-247q-13 0 -13 12v33q0 13 13 13zM205 720q49 0 49 -49q0 -51 -49 -51q-52 0 -52 51q0 49 52 49zM376 720q51 0 51 -49q0 -51 -51 -51q-50 0 -50 51q0 49 50 49zM448 541h47q13 0 13 -13v-506q0 -7 -2 -9t-11 -4
q-81 -14 -202 -14q-72 0 -107.5 7t-64.5 29q-28 23 -39 67t-11 125v305q0 13 14 13h46q13 0 13 -13v-304q0 -114 32 -141q18 -15 39 -19.5t66 -4.5h154v469q0 13 13 13z" />
    <glyph glyph-name="uni01D7" unicode="&#x1d7;" horiz-adv-x="738" 
d="M432 1088h64q9 0 9 -9v-8q0 -5 -5 -10l-124 -120q-6 -6 -12 -1l-14 11q-8 5 -3 12l75 119q3 6 10 6zM283 920q50 0 50 -49q0 -51 -50 -51q-51 0 -51 51q0 49 51 49zM506 871q0 -51 -51 -51t-51 51q0 49 51 49t51 -49zM594 748h51q13 0 13 -12v-363q0 -121 -12.5 -189.5
t-45.5 -112.5q-33 -43 -86 -59.5t-145 -16.5t-145 16.5t-86 59.5q-33 44 -45.5 112.5t-12.5 189.5v363q0 12 12 12h51q13 0 13 -12v-363q0 -99 9.5 -155.5t33.5 -92.5t63 -49.5t107 -13.5t107 13.5t63 49.5t33.5 92.5t9.5 155.5v363q0 8 2 10t10 2z" />
    <glyph glyph-name="uni01D8" unicode="&#x1d8;" horiz-adv-x="582" 
d="M360 888h63q9 0 9 -9v-7q0 -6 -5 -11l-124 -120q-5 -5 -12 0l-14 10q-6 6 -2 12l74 119q3 6 11 6zM205 720q49 0 49 -49q0 -51 -49 -51q-52 0 -52 51q0 49 52 49zM376 720q51 0 51 -49q0 -51 -51 -51q-50 0 -50 51q0 49 50 49zM448 541h47q13 0 13 -13v-506q0 -7 -2 -9
t-11 -4q-81 -14 -202 -14q-72 0 -107.5 7t-64.5 29q-28 23 -39 67t-11 125v305q0 13 14 13h46q13 0 13 -13v-304q0 -114 32 -141q18 -15 39 -19.5t66 -4.5h154v469q0 13 13 13z" />
    <glyph glyph-name="uni01D9" unicode="&#x1d9;" horiz-adv-x="738" 
d="M471 1090l13 -10q9 -6 3 -12l-89 -119q-6 -6 -14 -6h-30q-8 0 -14 6l-89 119q-6 6 2 12l14 10q7 4 12 0l90 -80l89 80q6 6 13 0zM283 920q50 0 50 -49q0 -51 -50 -51q-51 0 -51 51q0 49 51 49zM506 871q0 -51 -51 -51t-51 51q0 49 51 49t51 -49zM594 748h51q13 0 13 -12
v-363q0 -121 -12.5 -189.5t-45.5 -112.5q-33 -43 -86 -59.5t-145 -16.5t-145 16.5t-86 59.5q-33 44 -45.5 112.5t-12.5 189.5v363q0 12 12 12h51q13 0 13 -12v-363q0 -99 9.5 -155.5t33.5 -92.5t63 -49.5t107 -13.5t107 13.5t63 49.5t33.5 92.5t9.5 155.5v363q0 8 2 10t10 2
z" />
    <glyph glyph-name="uni01DA" unicode="&#x1da;" horiz-adv-x="582" 
d="M392 886l14 -11q7 -4 2 -12l-89 -118q-5 -6 -14 -6h-30q-9 0 -14 6l-89 118q-5 8 2 12l14 11q6 4 13 0l89 -81l89 81q7 4 13 0zM205 720q49 0 49 -49q0 -51 -49 -51q-52 0 -52 51q0 49 52 49zM376 720q51 0 51 -49q0 -51 -51 -51q-50 0 -50 51q0 49 50 49zM448 541h47
q13 0 13 -13v-506q0 -7 -2 -9t-11 -4q-81 -14 -202 -14q-72 0 -107.5 7t-64.5 29q-28 23 -39 67t-11 125v305q0 13 14 13h46q13 0 13 -13v-304q0 -114 32 -141q18 -15 39 -19.5t66 -4.5h154v469q0 13 13 13z" />
    <glyph glyph-name="uni01DB" unicode="&#x1db;" horiz-adv-x="738" 
d="M243 1088h63q8 0 11 -6l74 -119q5 -8 -2 -12l-14 -11q-6 -4 -13 1l-124 120q-4 5 -4 10v8q0 9 9 9zM283 920q50 0 50 -49q0 -51 -50 -51q-51 0 -51 51q0 49 51 49zM506 871q0 -51 -51 -51t-51 51q0 49 51 49t51 -49zM594 748h51q13 0 13 -12v-363q0 -121 -12.5 -189.5
t-45.5 -112.5q-33 -43 -86 -59.5t-145 -16.5t-145 16.5t-86 59.5q-33 44 -45.5 112.5t-12.5 189.5v363q0 12 12 12h51q13 0 13 -12v-363q0 -99 9.5 -155.5t33.5 -92.5t63 -49.5t107 -13.5t107 13.5t63 49.5t33.5 92.5t9.5 155.5v363q0 8 2 10t10 2z" />
    <glyph glyph-name="uni01DC" unicode="&#x1dc;" horiz-adv-x="582" 
d="M159 888h63q8 0 11 -6l74 -119q4 -6 -2 -12l-14 -10q-7 -4 -13 0l-124 120q-4 4 -4 11v7q0 9 9 9zM205 720q49 0 49 -49q0 -51 -49 -51q-52 0 -52 51q0 49 52 49zM376 720q51 0 51 -49q0 -51 -51 -51q-50 0 -50 51q0 49 50 49zM448 541h47q13 0 13 -13v-506q0 -7 -2 -9
t-11 -4q-81 -14 -202 -14q-72 0 -107.5 7t-64.5 29q-28 23 -39 67t-11 125v305q0 13 14 13h46q13 0 13 -13v-304q0 -114 32 -141q18 -15 39 -19.5t66 -4.5h154v469q0 13 13 13z" />
    <glyph glyph-name="Aringacute" unicode="&#x1fa;" horiz-adv-x="660" 
d="M363 1085h63q9 0 9 -8v-8q0 -6 -4 -10l-74 -67q72 -12 72 -94q0 -97 -101 -97q-100 0 -100 97q0 79 69 94l55 88q2 5 11 5zM390 898q0 62 -62 62t-62 -62t62 -62t62 62zM328 753q68 0 88 -19q21 -20 42 -96l171 -624q3 -14 -10 -14h-57q-8 0 -11 13l-65 231h-314
l-66 -231q-4 -13 -12 -13h-57q-13 0 -10 14l177 624q21 75 42 95q22 20 82 20zM328 686q-23 0 -31 -11q-9 -12 -20 -55l-87 -308h278l-83 308q-12 44 -21 55q-8 11 -36 11z" />
    <glyph glyph-name="aringacute" unicode="&#x1fb;" horiz-adv-x="524" 
d="M290 885h63q9 0 9 -8v-8q0 -6 -4 -10l-74 -67q72 -12 72 -94q0 -97 -101 -97q-100 0 -100 97q0 80 69 94l55 88q3 5 11 5zM317 698q0 62 -62 62t-62 -62t62 -62t62 62zM233 546q111 0 165.5 -36.5t54.5 -118.5v-350q0 -19 -18 -26q-54 -20 -213 -20q-102 0 -142 33
q-41 35 -41 125q0 79 40 113.5t127 34.5h175v79q0 54 -35.5 78t-112.5 24h-135q-13 0 -13 13v28q0 11 12 14q62 9 136 9zM381 71v167h-175q-50 0 -72.5 -19.5t-22.5 -65.5q0 -55 27.5 -75t99.5 -20q95 0 143 13z" />
    <glyph glyph-name="AEacute" unicode="&#x1fc;" horiz-adv-x="961" 
d="M580 948h64q8 0 8 -9v-8q0 -6 -4 -10l-124 -120q-6 -6 -12 -1l-14 11q-8 5 -3 12l75 119q3 6 10 6zM328 753l219 -5h351q12 0 12 -12v-42q0 -13 -12 -13h-345v-287h309q13 0 13 -12v-42q0 -13 -13 -13h-309v-260h345q12 0 12 -12v-42q0 -13 -12 -13h-406q-15 0 -15 15
v229h-306l-66 -231q-3 -13 -11 -13h-57q-13 0 -10 14l177 624q21 75 42 95q22 20 82 20zM477 312v373h-149q-25 0 -32 -10t-19 -55l-87 -308h287z" />
    <glyph glyph-name="aeacute" unicode="&#x1fd;" horiz-adv-x="858" 
d="M483 748h64q9 0 9 -9v-8q0 -5 -5 -10l-124 -120q-6 -6 -12 -1l-14 11q-7 5 -3 12l75 119q3 6 10 6zM599 546q129 0 169 -51q43 -52 44 -206v-29q0 -15 -5.5 -20t-25.5 -5h-327q2 -107 30 -141q29 -35 115 -35h157q13 0 13 -13v-31q0 -11 -12 -13q-62 -7 -158 -7
q-52 0 -99 12.5t-70 33.5q-73 -46 -207 -46q-101 0 -143 33q-41 35 -41 125q0 79 40 113.5t128 34.5h174v79q0 54 -35.5 78t-111.5 24h-136q-12 0 -12 13v28q0 11 11 14q62 9 137 9q140 0 188 -59q23 32 64 45.5t113 13.5zM599 482q-89 0 -116 -36q-28 -35 -29 -146h286
q-1 112 -29 147q-26 35 -112 35zM381 238h-174q-50 0 -72.5 -19.5t-22.5 -65.5q0 -54 27 -74.5t99 -20.5q32 0 85 8q50 9 79 26q-21 49 -21 146z" />
    <glyph glyph-name="Oslashacute" unicode="&#x1fe;" horiz-adv-x="717" 
d="M421 948h63q9 0 9 -9v-8q0 -6 -4 -10l-124 -120q-7 -5 -13 -1l-14 11q-7 4 -2 12l74 119q3 6 11 6zM655 373q0 -117 -13 -185.5t-46 -113.5q-33 -44 -88 -61.5t-150 -17.5q-136 0 -197 42l-31 -44q-8 -12 -17 -3l-30 20q-11 8 -3 18l36 52q-54 78 -54 293q0 175 35 260
q30 66 89.5 92t171.5 28q140 0 202 -46l26 37q9 12 18 3l30 -20q10 -6 2 -17l-33 -47q52 -79 52 -290zM358 686q-73 0 -114 -14.5t-65 -52.5q-23 -37 -31.5 -91.5t-8.5 -154.5q0 -161 27 -222l350 494q-47 41 -158 41zM578 373q0 154 -26 217l-347 -491q46 -37 153 -37
q74 0 115 14t64 51q24 38 32.5 92t8.5 154z" />
    <glyph glyph-name="oslashacute" unicode="&#x1ff;" horiz-adv-x="559" 
d="M329 748h64q9 0 9 -9v-8q0 -5 -5 -10l-124 -120q-6 -6 -12 -1l-14 11q-7 5 -3 12l75 119q3 6 10 6zM502 271q0 -91 -9 -139.5t-34 -80.5q-24 -32 -64.5 -44t-115.5 -12q-98 0 -144 26l-19 -27q-8 -12 -17 -3l-30 20q-11 8 -3 17l24 35q-33 55 -33 208q0 167 42 221
q43 54 180 54q91 0 137 -23l16 23q9 12 17 4l30 -21q11 -6 3 -17l-18 -26q38 -56 38 -215zM279 482q-94 0 -123 -41q-27 -41 -27 -170q0 -95 12 -135l233 328q-30 18 -95 18zM415 417l-238 -337q31 -21 102 -21q96 0 123 41q28 40 28 171q0 105 -15 146z" />
    <glyph glyph-name="uni0218" unicode="&#x218;" horiz-adv-x="595" 
d="M307 753q94 0 195 -10q11 -2 11 -11v-34q0 -12 -10 -12h-221q-76 0 -111.5 -24t-35.5 -77v-16q0 -45 17 -69t65 -44l228 -96q60 -26 83.5 -67t23.5 -102v-30q0 -85 -51 -125q-23 -17 -58 -27q-56 -14 -143 -14q-135 0 -243 11q-10 0 -10 12v33q0 11 12 11h265
q78 0 115 22.5t37 77.5v22q0 42 -17 71t-61 48l-245 101q-38 16 -61 42q-21 26 -27.5 52t-6.5 68v22q0 80 47 120q61 45 202 45zM275 -38h55q9 0 9 -9v-7q0 -7 -4 -11l-117 -120q-4 -5 -12 0l-14 10q-6 6 -2 13l74 119q3 5 11 5z" />
    <glyph glyph-name="uni0219" unicode="&#x219;" horiz-adv-x="474" 
d="M241 546q98 0 155 -7q12 -1 12 -13v-31q0 -13 -13 -13h-182q-87 0 -87 -60v-16q0 -28 15 -47t52 -34l141 -57q56 -23 75.5 -53t19.5 -81v-12q0 -76 -44 -102q-43 -25 -152 -25q-105 0 -174 8q-12 1 -12 12v31q0 13 12 13h176q72 0 97 12.5t25 50.5v13q0 27 -13.5 44
t-46.5 31l-150 60q-93 38 -93 137v22q0 60 40 88q15 11 44 19q40 10 103 10zM208 -38h56q9 0 9 -9v-7q0 -6 -4 -11l-117 -120q-6 -6 -12 0l-14 10q-6 6 -3 13l75 119q3 5 10 5z" />
    <glyph glyph-name="uni021A" unicode="&#x21a;" horiz-adv-x="599" 
d="M27 748h546q12 0 12 -12v-42q0 -13 -12 -13h-235v-668q0 -13 -13 -13h-50q-13 0 -13 13v668h-235q-13 0 -13 13v42q0 12 13 12zM270 -38h55q9 0 9 -9v-7q0 -7 -4 -11l-116 -120q-6 -4 -13 0l-14 10q-6 6 -2 13l74 119q3 5 11 5z" />
    <glyph glyph-name="uni021B" unicode="&#x21b;" horiz-adv-x="320" 
d="M107 681l47 11q15 5 15 -11v-140h111q13 0 13 -13v-35q0 -12 -13 -12h-111v-366q0 -34 12.5 -45t52.5 -11h53q14 0 14 -12v-34q0 -10 -12 -13q-23 -5 -54 -5q-51 0 -79 8q-60 19 -60 97v381h-56q-13 0 -13 12v35q0 13 13 13h56v127q0 10 11 13zM174 -38h56q9 0 9 -9v-7
q0 -6 -4 -11l-117 -120q-6 -6 -12 0l-14 10q-6 6 -3 13l75 119q3 5 10 5z" />
    <glyph glyph-name="circumflex.001" unicode="&#x2c6;" horiz-adv-x="480" 
d="M225 748h30q10 0 14 -7l89 -118q6 -6 -2 -12l-14 -11q-6 -4 -13 1l-89 80l-89 -80q-7 -5 -13 -1l-14 11q-8 6 -2 12l89 118q4 7 14 7z" />
    <glyph glyph-name="caron.001" unicode="&#x2c7;" horiz-adv-x="480" 
d="M342 745l14 -10q7 -7 2 -13l-89 -118q-5 -6 -14 -6h-30q-9 0 -14 6l-89 118q-5 6 2 13l14 10q7 4 13 0l89 -80l89 80q7 4 13 0z" />
    <glyph glyph-name="breve.001" unicode="&#x2d8;" horiz-adv-x="524" 
d="M366 738h25q14 0 12 -14q-9 -65 -39 -91q-28 -24 -102 -24q-73 0 -103 24q-31 26 -38 91q-3 14 12 14h24q11 0 14 -11q11 -36 30 -49.5t61 -13.5t60.5 13.5t29.5 49.5q5 11 14 11z" />
    <glyph glyph-name="dotaccent.001" unicode="&#x2d9;" horiz-adv-x="340" 
d="M170 720q50 0 50 -49q0 -51 -50 -51q-51 0 -51 51q0 49 51 49z" />
    <glyph glyph-name="ring" unicode="&#x2da;" horiz-adv-x="442" 
d="M120 698q0 97 101 97t101 -97t-101 -97t-101 97zM283 698q0 62 -62 62t-62 -62t62 -62t62 62z" />
    <glyph glyph-name="ogonek" unicode="&#x2db;" horiz-adv-x="391" 
d="M149 14h23q15 0 12 -15q-11 -46 -11 -64q0 -23 9 -29.5t39 -6.5h38q12 0 12 -13v-25q0 -12 -10 -16q-24 -7 -54 -7q-48 0 -67.5 16.5t-19.5 59.5q0 33 14 89q5 11 15 11z" />
    <glyph glyph-name="tilde" unicode="&#x2dc;" horiz-adv-x="556" 
d="M211 727q21 0 69 -23q45 -22 62 -22q20 0 29.5 7.5t18.5 30.5q4 8 6.5 10t9.5 0l18 -4q13 -4 9 -20q-16 -53 -33.5 -71t-54.5 -18q-24 0 -69 22q-48 23 -62 23q-19 0 -28.5 -8t-19.5 -31q-4 -8 -6.5 -10t-9.5 0l-18 5q-13 4 -9 19q16 52 34 72q17 18 54 18z" />
    <glyph glyph-name="hungarumlaut.001" unicode="&#x2dd;" horiz-adv-x="567" 
d="M206 748h63q9 0 9 -9v-8q0 -5 -4 -10l-124 -120q-7 -5 -13 -1l-14 11q-7 4 -2 12l74 119q3 6 11 6zM374 748h63q9 0 9 -9v-8q0 -5 -5 -10l-124 -120q-5 -5 -12 -1l-14 11q-7 4 -2 12l74 119q3 6 11 6z" />
    <glyph glyph-name="uni0326" unicode="&#x326;" horiz-adv-x="0" 
d="M209 -38h56q9 0 9 -9v-7q0 -6 -5 -11l-116 -120q-6 -6 -12 0l-14 10q-7 6 -3 13l74 119q3 5 11 5z" />
    <glyph glyph-name="pi" unicode="&#x3c0;" horiz-adv-x="626" 
d="M40 542h551q13 0 13 -13v-37q0 -13 -13 -13h-85v-466q0 -13 -13 -13h-42q-13 0 -13 13v466h-244q0 -233 -42 -466q-3 -13 -13 -13h-42q-16 0 -13 13q42 233 42 466h-86q-13 0 -13 13v37q0 13 13 13z" />
    <glyph glyph-name="uni0401" unicode="&#x401;" 
d="M234 920q49 0 49 -49q0 -51 -49 -51q-52 0 -52 51q0 49 52 49zM405 920q51 0 51 -49q0 -51 -51 -51q-50 0 -50 51q0 49 50 49zM102 748h452q13 0 13 -12v-42q0 -13 -13 -13h-390v-287h354q13 0 13 -12v-42q0 -13 -13 -13h-354v-260h390q13 0 13 -12v-42q0 -13 -13 -13
h-452q-15 0 -15 15v718q0 15 15 15z" />
    <glyph glyph-name="uni0410" unicode="&#x410;" horiz-adv-x="660" 
d="M328 753q68 0 88 -19q21 -20 42 -96l171 -624q3 -14 -10 -14h-57q-8 0 -11 13l-65 231h-314l-66 -231q-4 -13 -12 -13h-57q-13 0 -10 14l177 624q21 75 42 95q22 20 82 20zM328 686q-23 0 -31 -11q-9 -12 -20 -55l-87 -308h278l-83 308q-12 44 -21 55q-8 11 -36 11z" />
    <glyph glyph-name="uni0411" unicode="&#x411;" horiz-adv-x="669" 
d="M164 681v-246h214q122 0 183 -44q60 -43 60 -161v-32q0 -118 -60 -161q-60 -42 -183 -42q-161 0 -278 5q-13 1 -13 13v723q0 12 13 12h473q13 0 13 -12v-42q0 -13 -13 -13h-409zM545 198v29q0 80 -38.5 110.5t-123.5 30.5h-219v-306h218q89 0 126 29t37 107z" />
    <glyph glyph-name="uni0412" unicode="&#x412;" horiz-adv-x="676" 
d="M345 753q133 0 194 -45q62 -45 62 -162q0 -145 -84 -166v-3q104 -20 104 -179q0 -118 -60 -161q-60 -42 -183 -42q-161 0 -278 5q-13 1 -13 13v722q0 12 13 13q88 5 245 5zM340 686h-176v-279h159q88 0 133 11q38 11 52 37t17 86q0 87 -43 115q-43 30 -142 30zM392 343
h-228v-281h218q89 0 126 29t37 107q0 82 -36 113.5t-117 31.5z" />
    <glyph glyph-name="uni0413" unicode="&#x413;" horiz-adv-x="539" 
d="M151 0h-51q-13 0 -13 13v721q0 14 15 14h412q12 0 12 -12v-42q0 -13 -12 -13h-350v-668q0 -13 -13 -13z" />
    <glyph glyph-name="uni0414" unicode="&#x414;" horiz-adv-x="682" 
d="M233 748h335q15 0 15 -14v-667h37q15 0 15 -14v-197q0 -12 -12 -12h-47q-13 0 -13 12v144h-460v-144q0 -12 -13 -12h-47q-13 0 -13 12v197q0 14 15 14h45q30 14 42.5 40t19.5 86l66 541q2 14 15 14zM507 67v614h-219l-63 -511q-9 -71 -28 -103h310z" />
    <glyph glyph-name="uni0415" unicode="&#x415;" 
d="M102 748h452q13 0 13 -12v-42q0 -13 -13 -13h-390v-287h354q13 0 13 -12v-42q0 -13 -13 -13h-354v-260h390q13 0 13 -12v-42q0 -13 -13 -13h-452q-15 0 -15 15v718q0 15 15 15z" />
    <glyph glyph-name="uni0416" unicode="&#x416;" horiz-adv-x="911" 
d="M878 732l-304 -330l323 -380q7 -8 3.5 -15t-17.5 -7h-55q-13 0 -19 9l-315 374v-370q0 -13 -13 -13h-51q-13 0 -13 13v370l-315 -374q-6 -9 -19 -9h-55q-14 0 -17.5 7t3.5 15l323 380l-304 330q-13 16 7 16h59q10 0 18 -8l300 -319v315q0 12 13 12h51q13 0 13 -12v-315
l300 319q8 8 18 8h59q20 0 7 -16z" />
    <glyph glyph-name="uni0417" unicode="&#x417;" horiz-adv-x="590" 
d="M221 753q174 0 238 -38q63 -37 63 -155v-20q0 -135 -95 -165q95 -32 95 -165v-17q0 -119 -63 -159q-61 -39 -238 -39q-88 0 -163 6q-12 1 -12 5v49q0 7 13 7h169q126 0 172 26q45 27 45 107v11q0 75 -32.5 105t-116.5 30h-202q-10 0 -10 10v46q0 10 10 10h201
q84 0 117 30t33 107v18q0 78 -47 101q-48 23 -177 23h-162q-13 0 -13 7v47q0 7 12 7q60 6 163 6z" />
    <glyph glyph-name="uni0418" unicode="&#x418;" horiz-adv-x="763" 
d="M100 748h51q13 0 13 -12v-609l399 598q10 15 18 19t29 4h54q12 0 12 -12v-723q0 -13 -12 -13h-51q-13 0 -13 13v636l-423 -634q-11 -15 -28 -15h-49q-13 0 -13 13v723q0 12 13 12z" />
    <glyph glyph-name="uni0419" unicode="&#x419;" horiz-adv-x="763" 
d="M484 938h24q15 0 12 -14q-7 -65 -38 -91q-30 -24 -103 -24t-103 24q-29 26 -38 91q-3 14 12 14h25q9 0 14 -11q11 -36 29.5 -49.5t60.5 -13.5t61 13.5t30 49.5q3 11 14 11zM100 748h51q13 0 13 -12v-609l399 598q10 15 18 19t29 4h54q12 0 12 -12v-723q0 -13 -12 -13h-51
q-13 0 -13 13v636l-423 -634q-11 -15 -28 -15h-49q-13 0 -13 13v723q0 12 13 12z" />
    <glyph glyph-name="uni041A" unicode="&#x41a;" horiz-adv-x="595" 
d="M496 748h59q20 0 7 -16l-318 -330l337 -380q7 -8 3.5 -15t-17.5 -7h-55q-13 0 -19 9l-329 374v-370q0 -13 -13 -13h-51q-13 0 -13 13v723q0 12 13 12h51q13 0 13 -12v-315l314 319q6 8 18 8z" />
    <glyph glyph-name="uni041B" unicode="&#x41b;" horiz-adv-x="688" 
d="M251 748h335q15 0 15 -14v-721q0 -13 -13 -13h-50q-13 0 -13 13v668h-219l-63 -511q-13 -113 -62 -148q-40 -27 -94 -27q-25 0 -45 4q-12 3 -12 14v37q0 12 13 12h15q62 0 81 27q21 28 31 104l66 541q2 14 15 14z" />
    <glyph glyph-name="uni041C" unicode="&#x41c;" horiz-adv-x="924" 
d="M731 748h56q13 0 15 -14l62 -721q0 -13 -13 -13h-51q-12 0 -13 13l-48 609l-232 -587q-5 -12 -18 -12h-54q-13 0 -18 12l-232 587l-48 -609q-1 -13 -13 -13h-51q-13 0 -13 13l62 721q2 14 15 14h56q14 0 21 -7t16 -30l232 -601l232 601q9 23 16 30t21 7z" />
    <glyph glyph-name="uni041D" unicode="&#x41d;" horiz-adv-x="767" 
d="M617 748h51q12 0 12 -12v-723q0 -13 -12 -13h-51q-13 0 -13 13v336h-440v-336q0 -13 -13 -13h-51q-13 0 -13 13v723q0 12 13 12h51q13 0 13 -12v-319h440v319q0 12 13 12z" />
    <glyph glyph-name="uni041E" unicode="&#x41e;" horiz-adv-x="717" 
d="M358 753q138 0 208 -49q51 -40 69.5 -115.5t19.5 -215.5q0 -117 -13 -185.5t-46 -113.5q-33 -44 -88 -61.5t-150 -17.5t-149.5 17.5t-87.5 61.5q-33 45 -46 113.5t-13 185.5q0 175 35 260q30 66 89.5 92t171.5 28zM471 672q-44 14 -113 14t-113 -14q-81 -28 -98 -147
q-8 -59 -8 -152t8 -152q18 -118 98 -146q40 -13 113 -13t113 13q81 28 99 146q8 59 8 152t-8 152q-18 119 -99 147z" />
    <glyph glyph-name="uni041F" unicode="&#x41f;" horiz-adv-x="685" 
d="M102 748h481q15 0 15 -14v-721q0 -13 -13 -13h-51q-13 0 -13 13v668h-357v-668q0 -13 -13 -13h-51q-13 0 -13 13v721q0 14 15 14z" />
    <glyph glyph-name="uni0420" unicode="&#x420;" horiz-adv-x="633" 
d="M290 753q139 0 203 -24q55 -20 75.5 -67.5t23.5 -145.5q0 -80 -15.5 -125t-50.5 -72q-20 -15 -58 -23q-58 -13 -178 -13h-126v-270q0 -13 -13 -13h-51q-13 0 -13 13v722q0 12 13 13q88 5 190 5zM285 686h-121v-335h121q53 0 70 1q73 2 98 14q41 19 49 48q14 42 14 101
q0 62 -10 94t-39 49q-27 18 -68 23q-43 5 -114 5z" />
    <glyph glyph-name="uni0421" unicode="&#x421;" horiz-adv-x="587" 
d="M358 753q120 0 180 -6q12 -1 12 -14v-34q0 -13 -13 -13h-179q-74 0 -115 -14.5t-65 -51.5q-23 -37 -31.5 -91.5t-8.5 -154.5t8.5 -154t31.5 -92q24 -37 65 -51.5t115 -14.5h179q13 0 13 -12v-35q0 -13 -12 -13q-66 -7 -180 -7q-137 0 -207 49q-51 40 -69.5 115t-19.5 215
q0 174 35 259q30 66 89.5 92t171.5 28z" />
    <glyph glyph-name="uni0422" unicode="&#x422;" horiz-adv-x="599" 
d="M27 748h546q12 0 12 -12v-42q0 -13 -12 -13h-235v-668q0 -13 -13 -13h-50q-13 0 -13 13v668h-235q-13 0 -13 13v42q0 12 13 12z" />
    <glyph glyph-name="uni0423" unicode="&#x423;" horiz-adv-x="589" 
d="M517 748h55q15 0 10 -14l-211 -541q-46 -120 -86 -160q-38 -38 -101 -38q-41 0 -63 5q-11 3 -11 15v35q0 12 13 12h49q34 0 56.5 22t49.5 82l-273 567q-7 15 11 15h56q10 0 15 -9l229 -482l185 481q6 10 16 10z" />
    <glyph glyph-name="uni0424" unicode="&#x424;" horiz-adv-x="847" 
d="M398 755h51q13 0 13 -12v-79q107 -2 167.5 -15t100.5 -45q40 -31 56 -83.5t16 -142.5t-16 -142.5t-56 -84.5t-100 -44.5t-168 -14.5v-79q0 -13 -13 -13h-51q-13 0 -13 13v79q-159 4 -233 36q-59 27 -83.5 86.5t-24.5 163.5q0 89 16.5 141.5t56.5 84.5q41 32 101.5 45
t166.5 15v79q0 12 13 12zM385 159v437q-160 -3 -213 -46q-53 -42 -53 -172t53 -174q54 -42 213 -45zM462 596v-437q160 3 212 45q53 44 53 174t-53 172q-52 43 -212 46z" />
    <glyph glyph-name="uni0425" unicode="&#x425;" horiz-adv-x="621" 
d="M518 748h55q23 0 9 -18l-227 -340l251 -376q13 -19 -9 -19h-55q-14 0 -23 14l-209 314l-207 -311q-9 -13 -22 -13h-56q-22 0 -9 19l249 372l-228 340q-11 18 9 18h56q15 0 22 -13l186 -277l185 277q7 13 23 13z" />
    <glyph glyph-name="uni0426" unicode="&#x426;" horiz-adv-x="718" 
d="M611 736v-669h67q15 0 15 -14v-197q0 -12 -13 -12h-46q-13 0 -13 12v144h-519q-15 0 -15 15v721q0 12 13 12h51q13 0 13 -12v-669h370v669q0 12 13 12h51q13 0 13 -12z" />
    <glyph glyph-name="uni0427" unicode="&#x427;" horiz-adv-x="627" 
d="M476 748h51q13 0 13 -12v-723q0 -13 -13 -13h-51q-12 0 -12 13v270h-107q-50 0 -102 2q-98 8 -135 34q-35 28 -50 72.5t-15 124.5v220q0 12 13 12h51q12 0 12 -12v-221q0 -108 47 -141q12 -10 44 -16q32 -5 59 -6q19 -1 82 -1h101v385q0 12 12 12z" />
    <glyph glyph-name="uni0428" unicode="&#x428;" horiz-adv-x="961" 
d="M811 748h51q12 0 12 -12v-721q0 -15 -15 -15h-757q-15 0 -15 15v721q0 12 13 12h51q13 0 13 -12v-669h279v669q0 12 12 12h51q13 0 13 -12v-669h279v669q0 12 13 12z" />
    <glyph glyph-name="uni0429" unicode="&#x429;" horiz-adv-x="981" 
d="M874 736v-669h67q15 0 15 -14v-197q0 -12 -12 -12h-46q-13 0 -13 12v144h-783q-15 0 -15 15v721q0 12 13 12h51q13 0 13 -12v-669h279v669q0 12 12 12h51q13 0 13 -12v-669h279v669q0 12 13 12h51q12 0 12 -12z" />
    <glyph glyph-name="uni042A" unicode="&#x42a;" horiz-adv-x="696" 
d="M199 736v-301h214q122 0 183 -44q61 -43 61 -161v-32q0 -118 -60 -161q-60 -42 -184 -42q-161 0 -278 5q-13 1 -13 13v668h-90q-13 0 -13 13v42q0 12 13 12h154q13 0 13 -12zM580 198v29q0 80 -38.5 110.5t-122.5 30.5h-220v-306h218q89 0 126 29t37 107z" />
    <glyph glyph-name="uni042B" unicode="&#x42b;" horiz-adv-x="878" 
d="M163 736v-301h215q122 0 183 -44q60 -43 60 -161v-32q0 -118 -60 -161q-60 -42 -183 -42q-161 0 -278 5q-13 1 -13 13v723q0 12 13 12h51q12 0 12 -12zM727 748h51q13 0 13 -12v-723q0 -13 -13 -13h-51q-12 0 -12 13v723q0 12 12 12zM545 198v29q0 80 -38.5 110.5
t-123.5 30.5h-220v-306h219q89 0 126 29t37 107z" />
    <glyph glyph-name="uni042C" unicode="&#x42c;" horiz-adv-x="660" 
d="M164 736v-301h214q122 0 183 -44q60 -43 60 -161v-32q0 -118 -60 -161q-60 -42 -183 -42q-161 0 -278 5q-13 1 -13 13v723q0 12 13 12h51q13 0 13 -12zM545 198v29q0 80 -38.5 110.5t-123.5 30.5h-219v-306h218q89 0 126 29t37 107z" />
    <glyph glyph-name="uni042D" unicode="&#x42d;" horiz-adv-x="610" 
d="M252 753q137 0 207 -49q51 -40 69.5 -115.5t19.5 -214.5q0 -174 -35 -259q-30 -66 -89.5 -92t-171.5 -28q-138 0 -204 7q-12 0 -12 13v35q0 12 13 12h203q130 0 173 57q44 59 47 222h-308q-13 0 -13 12v42q0 13 13 13h308q-3 163 -47 221q-43 57 -173 57h-203
q-13 0 -13 13v34q0 13 12 14q60 6 204 6z" />
    <glyph glyph-name="uni042E" unicode="&#x42e;" horiz-adv-x="989" 
d="M631 753q137 0 207 -49q51 -40 69.5 -115.5t19.5 -215.5q0 -117 -13 -185.5t-46 -113.5q-33 -44 -87.5 -61.5t-149.5 -17.5q-173 0 -234 73q-61 74 -62 281h-172v-336q0 -13 -12 -13h-51q-13 0 -13 13v723q0 12 13 12h51q12 0 12 -12v-319h172q5 196 65 265q62 71 231 71
zM744 672q-44 14 -113 14t-113 -14q-81 -28 -99 -147q-8 -59 -8 -152t8 -152q18 -118 99 -146q40 -13 113 -13t113 13q81 28 99 146q8 59 8 152t-8 152q-18 119 -99 147z" />
    <glyph glyph-name="uni042F" unicode="&#x42f;" horiz-adv-x="645" 
d="M355 753q103 0 191 -5q12 -2 12 -13v-722q0 -13 -12 -13h-51q-13 0 -13 13v270h-176l-168 -265q-12 -18 -33 -18h-44q-10 0 -12.5 5t2.5 12l170 272q-93 10 -131 58q-37 47 -37 169q0 115 40 173q19 26 58 40q66 24 204 24zM482 351v335h-121q-71 0 -114 -5
q-41 -5 -69 -23q-28 -17 -38 -49t-10 -94q0 -104 34 -131q32 -24 72 -28q49 -5 125 -5h121z" />
    <glyph glyph-name="uni0430" unicode="&#x430;" horiz-adv-x="526" 
d="M235 546q111 0 165.5 -37t54.5 -118v-350q0 -19 -18 -26q-54 -20 -213 -20q-100 0 -143 32q-41 33 -41 122v10q0 75 40.5 108.5t127.5 33.5h174v79q0 54 -35.5 78t-111.5 24h-136q-13 0 -13 13v28q0 11 12 14q62 9 137 9zM382 72v166h-171q-63 0 -81 -18q-18 -16 -18 -69
v-4q0 -53 25.5 -70.5t93.5 -17.5q98 0 151 13z" />
    <glyph glyph-name="uni0431" unicode="&#x431;" horiz-adv-x="570" 
d="M458 753h29q10 0 10 -21q-1 -35 -23.5 -51.5t-79.5 -28.5q-19 -5 -49 -9q-21 -3 -46 -8q-54 -11 -74 -22q-38 -20 -51 -44q-21 -36 -26 -83q23 34 55 47t88 13q137 0 180 -54q43 -53 43 -221q0 -91 -9 -139.5t-34 -80.5q-24 -32 -64.5 -44t-115.5 -12q-137 0 -180 54
q-43 55 -42 222v82q-1 207 67 275q22 26 73 46q24 10 49 16q31 8 123 26q44 7 58 26q1 1 2.5 3t2 3t2 2t2.5 1.5t3.5 1t6.5 0.5zM291 482q-94 0 -123 -41q-27 -41 -27 -170q0 -131 27 -171q29 -41 123 -41q96 0 123 41q28 40 28 171q0 130 -28 170q-27 41 -123 41z" />
    <glyph glyph-name="uni0432" unicode="&#x432;" horiz-adv-x="553" 
d="M282 546q107 0 155 -34.5t48 -117.5q0 -55 -16.5 -84t-54.5 -37v-2q87 -12 87 -128q0 -82 -46 -115t-150 -33q-157 0 -219 5q-11 2 -11 12v518q0 9 11 11q102 5 196 5zM276 479h-125v-179h114q84 0 114 15t30 70q0 53 -30.5 73.5t-102.5 20.5zM312 241h-161v-179h155
q64 0 91 19t27 69q0 51 -26.5 71t-85.5 20z" />
    <glyph glyph-name="uni0433" unicode="&#x433;" horiz-adv-x="445" 
d="M87 541h326q10 0 10 -10v-48q0 -10 -10 -10h-262v-463q0 -10 -10 -10h-56q-10 0 -10 10v520q0 11 12 11z" />
    <glyph glyph-name="uni0434" unicode="&#x434;" horiz-adv-x="560" 
d="M184 541h275q12 0 12 -11v-463h32q12 0 12 -10v-156q0 -10 -10 -10h-51q-10 0 -10 10v99h-342v-99q0 -10 -11 -10h-50q-10 0 -10 10v156q0 10 12 10h33q23 9 33 29.5t16 66.5l48 367q2 11 11 11zM395 67v406h-151l-45 -334q-6 -42 -20 -72h216z" />
    <glyph glyph-name="uni0435" unicode="&#x435;" horiz-adv-x="534" 
d="M276 546q128 0 168 -51q43 -52 44 -206v-29q0 -15 -5.5 -20t-25.5 -5h-327q3 -107 31 -141q29 -35 115 -35h156q13 0 13 -13v-31q0 -11 -12 -13q-60 -7 -157 -7q-135 0 -177 54q-41 55 -41 222q0 168 41 221q42 54 177 54zM276 482q-90 0 -117 -36q-28 -35 -29 -146h286
q-1 111 -28 147q-26 35 -112 35z" />
    <glyph glyph-name="uni0436" unicode="&#x436;" horiz-adv-x="773" 
d="M739 528l-235 -237l251 -276q5 -5 3 -10t-10 -5h-65q-9 0 -15 7l-243 266v-260q0 -13 -13 -13h-51q-13 0 -13 13v260l-243 -266q-6 -7 -15 -7h-65q-8 0 -10 5t3 10l251 276l-235 237q-4 5 -1 9t11 4h59q9 0 14 -6l231 -229v222q0 13 13 13h51q13 0 13 -13v-222l230 229
q6 6 16 6h58q8 0 11 -4t-1 -9z" />
    <glyph glyph-name="uni0437" unicode="&#x437;" horiz-adv-x="491" 
d="M197 546q132 0 182 -28q51 -27 51 -110v-24q0 -94 -75 -114q75 -19 75 -112v-23q0 -83 -51 -112q-49 -28 -182 -28q-56 0 -139 8q-11 0 -11 11v39q0 9 11 9h140q92 0 123 16q32 17 32 66v10q0 48 -24 66.5t-87 18.5h-153q-10 0 -10 10v42q0 10 10 10h152q64 0 88 18.5
t24 67.5v14q0 48 -34 63q-33 15 -126 15h-136q-10 0 -10 9v39q0 11 11 11q69 8 139 8z" />
    <glyph glyph-name="uni0438" unicode="&#x438;" horiz-adv-x="618" 
d="M485 541h48q10 0 10 -10v-521q0 -10 -10 -10h-56q-10 0 -10 10v412l-312 -409q-9 -13 -26 -13h-44q-10 0 -10 10v521q0 10 10 10h56q10 0 10 -10v-397l295 388q9 12 15.5 15.5t23.5 3.5z" />
    <glyph glyph-name="uni0439" unicode="&#x439;" horiz-adv-x="618" 
d="M419 738h24q15 0 12 -14q-9 -65 -39 -91q-28 -24 -102 -24q-73 0 -103 24q-29 26 -38 91q-3 14 12 14h25q9 0 14 -11q11 -36 29.5 -49.5t60.5 -13.5t61 13.5t30 49.5q3 11 14 11zM485 541h48q10 0 10 -10v-521q0 -10 -10 -10h-56q-10 0 -10 10v412l-312 -409
q-9 -13 -26 -13h-44q-10 0 -10 10v521q0 10 10 10h56q10 0 10 -10v-397l295 388q9 12 15.5 15.5t23.5 3.5z" />
    <glyph glyph-name="uni043A" unicode="&#x43a;" horiz-adv-x="496" 
d="M397 541h59q8 0 11 -4t-1 -9l-235 -237l251 -276q5 -5 3 -10t-11 -5h-64q-9 0 -16 7l-243 266v-260q0 -13 -12 -13h-51q-13 0 -13 13v515q0 13 13 13h51q12 0 12 -13v-222l231 229q6 6 15 6z" />
    <glyph glyph-name="uni043B" unicode="&#x43b;" horiz-adv-x="567" 
d="M205 541h274q13 0 13 -12v-519q0 -10 -11 -10h-56q-10 0 -10 10v463h-152l-46 -332q-11 -79 -43.5 -112t-91.5 -33q-25 0 -40 4q-12 3 -12 13v41q0 9 10 9h14q48 0 65 21q18 23 25 78l49 368q2 11 12 11z" />
    <glyph glyph-name="uni043C" unicode="&#x43c;" horiz-adv-x="750" 
d="M580 541h55q10 0 11 -10l50 -521q1 -10 -10 -10h-56q-10 0 -10 10l-37 398l-169 -383q-3 -8 -14 -8h-51q-9 0 -14 8l-168 383l-37 -398q-1 -10 -10 -10h-56q-11 0 -10 10l49 520q2 11 12 11h55q13 0 19.5 -6t12.5 -22l172 -399l174 400q6 16 12 21.5t20 5.5z" />
    <glyph glyph-name="uni043D" unicode="&#x43d;" horiz-adv-x="620" 
d="M482 541h51q12 0 12 -13v-515q0 -13 -12 -13h-51q-13 0 -13 13v227h-318v-227q0 -13 -12 -13h-51q-13 0 -13 13v515q0 13 13 13h51q12 0 12 -13v-221h318v221q0 13 13 13z" />
    <glyph glyph-name="uni043E" unicode="&#x43e;" horiz-adv-x="560" 
d="M503 271q0 -167 -43 -222q-44 -54 -180 -54t-180 54q-43 55 -43 222t43 220q43 55 180 55t180 -55q43 -53 43 -220zM403 441q-27 41 -123 41q-95 0 -124 -41q-27 -41 -27 -170q0 -131 27 -171q29 -41 124 -41q96 0 123 41q27 40 27 171q0 129 -27 170z" />
    <glyph glyph-name="uni043F" unicode="&#x43f;" horiz-adv-x="557" 
d="M88 541h381q13 0 13 -13v-515q0 -13 -13 -13h-51q-12 0 -12 13v460h-255v-460q0 -13 -12 -13h-51q-13 0 -13 13v515q0 13 13 13z" />
    <glyph glyph-name="uni0440" unicode="&#x440;" horiz-adv-x="567" 
d="M290 546q138 0 179 -54q41 -55 41 -224q0 -92 -8.5 -139t-33.5 -79q-24 -32 -65.5 -43.5t-118.5 -11.5q-82 0 -138 6v-184q0 -13 -12 -13h-47q-13 0 -13 13v701q0 12 14 15q97 13 202 13zM290 482h-144v-416q71 -7 138 -7q100 0 127 39q27 40 27 171q0 132 -26 173
q-25 40 -122 40z" />
    <glyph glyph-name="uni0441" unicode="&#x441;" horiz-adv-x="475" 
d="M280 546q97 0 147 -7q12 -1 12 -13v-31q0 -13 -13 -13h-146q-95 0 -124 -41q-27 -41 -27 -170q0 -131 27 -171q29 -41 124 -41h146q13 0 13 -13v-31q0 -11 -12 -13q-60 -7 -147 -7q-136 0 -180 54q-43 55 -43 222t43 220q43 55 180 55z" />
    <glyph glyph-name="uni0442" unicode="&#x442;" horiz-adv-x="494" 
d="M35 541h424q13 0 13 -13v-42q0 -13 -13 -13h-174v-460q0 -13 -12 -13h-51q-13 0 -13 13v460h-174q-13 0 -13 13v42q0 13 13 13z" />
    <glyph glyph-name="uni0443" unicode="&#x443;" horiz-adv-x="581" 
d="M446 541h47q13 0 13 -13v-485q0 -78 -9.5 -121.5t-34.5 -71.5q-24 -29 -65 -40t-114 -11q-76 0 -140 7q-12 2 -12 14v31q0 12 13 12h139q92 0 121 28q30 27 30 104v8q-66 -8 -144 -8q-75 0 -115.5 12t-64.5 44q-23 32 -31.5 81t-8.5 139v257q0 13 13 13h47q12 0 12 -13
v-255q0 -133 26 -174q25 -40 122 -40q76 0 144 9v460q0 13 12 13z" />
    <glyph glyph-name="uni0444" unicode="&#x444;" horiz-adv-x="747" 
d="M516 546q97 0 136 -61q39 -60 39 -214q0 -155 -39 -216q-39 -60 -136 -60q-74 0 -106 27v-205q0 -13 -13 -13h-47q-12 0 -12 13v205q-33 -27 -107 -27q-96 0 -135 60q-39 61 -39 216q0 154 39 214q39 61 135 61q75 0 107 -26v216q0 12 12 12h47q13 0 13 -12v-216
q31 26 106 26zM337 81v379q-25 22 -95 22q-69 0 -92 -44q-21 -44 -21 -167q0 -125 21 -169q22 -43 92 -43t95 22zM619 271q0 124 -22 167q-21 44 -91 44t-95 -22v-379q25 -22 95 -22t91 43q22 43 22 169z" />
    <glyph glyph-name="uni0445" unicode="&#x445;" horiz-adv-x="512" 
d="M404 541h59q15 0 6 -16l-171 -238l194 -272q9 -15 -7 -15h-58q-9 0 -12 8l-159 221l-159 -221q-5 -8 -12 -8h-59q-15 0 -6 15l194 272l-171 238q-9 16 6 16h58q9 0 14 -8l135 -187l135 187q5 8 13 8z" />
    <glyph glyph-name="uni0446" unicode="&#x446;" horiz-adv-x="585" 
d="M491 528v-461h50q13 0 13 -12v-151q0 -13 -13 -13h-46q-13 0 -13 13v96h-395q-12 0 -12 13v515q0 13 12 13h51q13 0 13 -13v-461h263v461q0 13 13 13h51q13 0 13 -13z" />
    <glyph glyph-name="uni0447" unicode="&#x447;" horiz-adv-x="512" 
d="M373 541h51q13 0 13 -13v-515q0 -13 -13 -13h-51q-12 0 -12 13v184h-36q-51 0 -101 2q-90 7 -124 34q-56 52 -52 196v99q0 13 13 13h51q12 0 12 -13v-99q-4 -104 34 -142q10 -9 38 -15q37 -8 134 -8h31v264q0 13 12 13z" />
    <glyph glyph-name="uni0448" unicode="&#x448;" horiz-adv-x="772" 
d="M634 541h51q12 0 12 -13v-515q0 -13 -12 -13h-597q-13 0 -13 13v515q0 13 13 13h51q12 0 12 -13v-461h197v461q0 13 13 13h51q12 0 12 -13v-461h197v461q0 13 13 13z" />
    <glyph glyph-name="uni0449" unicode="&#x449;" horiz-adv-x="792" 
d="M698 528v-461h50q13 0 13 -12v-151q0 -13 -13 -13h-47q-12 0 -12 13v96h-601q-13 0 -13 13v515q0 13 13 13h51q12 0 12 -13v-461h197v461q0 13 13 13h51q12 0 12 -13v-461h197v461q0 13 13 13h51q13 0 13 -13z" />
    <glyph glyph-name="uni044A" unicode="&#x44a;" horiz-adv-x="602" 
d="M214 531v-210h155q102 0 148.5 -33.5t46.5 -115.5v-29q0 -82 -46 -115t-149 -33q-159 0 -221 5q-10 1 -10 10v463h-107q-10 0 -10 10v48q0 10 10 10h173q10 0 10 -10zM486 150v16q0 50 -27 69t-89 19h-156v-192h155q64 0 90.5 19t26.5 69z" />
    <glyph glyph-name="uni044B" unicode="&#x44b;" horiz-adv-x="706" 
d="M151 531v-210h154q102 0 148.5 -33.5t46.5 -115.5v-29q0 -82 -45.5 -115t-149.5 -33q-160 0 -220 5q-10 1 -10 10v521q0 10 10 10h56q10 0 10 -10zM571 541h47q13 0 13 -13v-515q0 -13 -13 -13h-47q-12 0 -12 13v515q0 13 12 13zM423 150v16q0 50 -27.5 69t-89.5 19h-155
v-192h155q64 0 90.5 19t26.5 69z" />
    <glyph glyph-name="uni044C" unicode="&#x44c;" horiz-adv-x="538" 
d="M151 531v-210h154q102 0 148.5 -33.5t46.5 -115.5v-29q0 -82 -45.5 -115t-149.5 -33q-160 0 -220 5q-10 1 -10 11v520q0 10 10 10h56q10 0 10 -10zM423 150v16q0 50 -27.5 69t-89.5 19h-155v-192h155q64 0 90.5 19t26.5 69z" />
    <glyph glyph-name="uni044D" unicode="&#x44d;" horiz-adv-x="505" 
d="M214 546q141 0 187 -58q48 -57 48 -218q0 -160 -48 -218q-47 -57 -187 -57q-95 0 -161 8q-12 0 -12 12v38q0 9 10 9h163q92 0 124 36q33 39 34 140h-232q-10 0 -10 10v45q0 9 10 9h232q-1 101 -34 140q-31 37 -124 37h-163q-10 0 -10 9v37q0 11 12 13q66 8 161 8z" />
    <glyph glyph-name="uni044E" unicode="&#x44e;" horiz-adv-x="785" 
d="M505 546q137 0 180 -55q43 -53 43 -220t-43 -222q-43 -54 -180 -54q-131 0 -176 49q-44 50 -47 196h-131v-227q0 -13 -12 -13h-51q-13 0 -13 13v515q0 13 13 13h51q12 0 12 -13v-221h132q3 142 47 191q45 48 175 48zM382 100q27 -41 123 -41t123 41q27 40 27 171
q0 129 -27 170t-123 41t-123 -41t-27 -170q0 -131 27 -171z" />
    <glyph glyph-name="uni044F" unicode="&#x44f;" horiz-adv-x="531" 
d="M281 546q103 0 163 -5q11 -2 11 -10v-521q0 -10 -11 -10h-55q-10 0 -10 10v191h-120l-129 -187q-8 -14 -27 -14h-52q-16 0 -7 12l131 194q-71 10 -99 45q-27 34 -27 118q0 107 48 142q50 35 184 35zM379 263v216h-91q-98 0 -130 -21t-32 -91q0 -69 31 -87q32 -17 131 -17
h91z" />
    <glyph glyph-name="uni0451" unicode="&#x451;" horiz-adv-x="534" 
d="M188 720q50 0 50 -49q0 -51 -50 -51q-51 0 -51 51q0 49 51 49zM360 720q50 0 50 -49q0 -51 -50 -51q-51 0 -51 51q0 49 51 49zM276 546q128 0 168 -51q43 -52 44 -206v-29q0 -15 -5.5 -20t-25.5 -5h-327q3 -107 31 -141q29 -35 115 -35h156q13 0 13 -13v-31
q0 -11 -12 -13q-60 -7 -157 -7q-135 0 -177 54q-41 55 -41 222q0 168 41 221q42 54 177 54zM276 482q-90 0 -117 -36q-28 -35 -29 -146h286q-1 111 -28 147q-26 35 -112 35z" />
    <glyph glyph-name="Wgrave" unicode="&#x1e80;" horiz-adv-x="1074" 
d="M412 948h63q8 0 11 -6l74 -119q5 -8 -2 -12l-14 -11q-6 -5 -12 1l-124 120q-5 5 -5 10v8q0 9 9 9zM970 748h58q8 0 9.5 -2t0.5 -11l-146 -625q-16 -75 -37 -96q-19 -19 -79 -19q-66 0 -85 19t-37 96l-117 483l-116 -483q-20 -78 -38 -96q-19 -19 -84 -19q-61 0 -80 19
q-21 21 -37 96l-146 625q-1 8 1 10.5t10 2.5h57q5 0 7.5 -2.5t4.5 -10.5l139 -607q10 -42 18 -54t26 -12q22 0 30 11q9 12 19 55l145 576q1 13 14 13h60q11 0 15 -13l145 -576q10 -43 19 -55q8 -11 30 -11q18 0 25.5 11.5t17.5 54.5l140 607q4 13 11 13z" />
    <glyph glyph-name="wgrave" unicode="&#x1e81;" horiz-adv-x="816" 
d="M284 748h63q8 0 11 -6l74 -119q4 -7 -3 -12l-14 -11q-6 -5 -12 1l-124 120q-4 4 -4 10v8q0 9 9 9zM717 541h51q14 0 11 -14l-89 -412q-18 -81 -36 -100q-17 -20 -70 -20q-54 0 -70 18q-14 19 -34 102l-72 302l-72 -302q-20 -84 -35 -102t-69 -18q-53 0 -71 20
q-17 20 -35 100l-89 412q-3 14 11 14h51q8 0 11 -14l87 -407q8 -36 14.5 -46.5t19.5 -10.5q15 0 20.5 9t14.5 48l96 386q4 16 13 16h66q9 0 13 -16l96 -386q9 -39 14.5 -48t20.5 -9q13 0 19.5 10.5t14.5 46.5l87 407q3 14 11 14z" />
    <glyph glyph-name="Wacute" unicode="&#x1e82;" horiz-adv-x="1074" 
d="M594 948h63q9 0 9 -9v-8q0 -6 -4 -10l-124 -120q-6 -6 -12 -1l-14 11q-8 5 -3 12l74 119q3 6 11 6zM970 748h58q8 0 9.5 -2t0.5 -11l-146 -625q-16 -75 -37 -96q-19 -19 -79 -19q-66 0 -85 19t-37 96l-117 483l-116 -483q-20 -78 -38 -96q-19 -19 -84 -19q-61 0 -80 19
q-21 21 -37 96l-146 625q-1 8 1 10.5t10 2.5h57q5 0 7.5 -2.5t4.5 -10.5l139 -607q10 -42 18 -54t26 -12q22 0 30 11q9 12 19 55l145 576q1 13 14 13h60q11 0 15 -13l145 -576q10 -43 19 -55q8 -11 30 -11q18 0 25.5 11.5t17.5 54.5l140 607q4 13 11 13z" />
    <glyph glyph-name="wacute" unicode="&#x1e83;" horiz-adv-x="816" 
d="M458 748h63q9 0 9 -9v-8q0 -5 -4 -10l-124 -120q-7 -5 -13 -1l-14 11q-7 4 -2 12l74 119q3 6 11 6zM717 541h51q14 0 11 -14l-89 -412q-18 -81 -36 -100q-17 -20 -70 -20q-54 0 -70 18q-14 19 -34 102l-72 302l-72 -302q-20 -84 -35 -102t-69 -18q-53 0 -71 20
q-17 20 -35 100l-89 412q-3 14 11 14h51q8 0 11 -14l87 -407q8 -36 14.5 -46.5t19.5 -10.5q15 0 20.5 9t14.5 48l96 386q4 16 13 16h66q9 0 13 -16l96 -386q9 -39 14.5 -48t20.5 -9q13 0 19.5 10.5t14.5 46.5l87 407q3 14 11 14z" />
    <glyph glyph-name="Wdieresis" unicode="&#x1e84;" horiz-adv-x="1074" 
d="M452 920q50 0 50 -49q0 -51 -50 -51q-51 0 -51 51q0 49 51 49zM624 920q50 0 50 -49q0 -51 -50 -51q-51 0 -51 51q0 49 51 49zM970 748h58q8 0 9.5 -2t0.5 -11l-146 -625q-16 -75 -37 -96q-19 -19 -79 -19q-66 0 -85 19t-37 96l-117 483l-116 -483q-20 -78 -38 -96
q-19 -19 -84 -19q-61 0 -80 19q-21 21 -37 96l-146 625q-1 8 1 10.5t10 2.5h57q5 0 7.5 -2.5t4.5 -10.5l139 -607q10 -42 18 -54t26 -12q22 0 30 11q9 12 19 55l145 576q1 13 14 13h60q11 0 15 -13l145 -576q10 -43 19 -55q8 -11 30 -11q18 0 25.5 11.5t17.5 54.5l140 607
q4 13 11 13z" />
    <glyph glyph-name="wdieresis" unicode="&#x1e85;" horiz-adv-x="816" 
d="M322 720q50 0 50 -49q0 -51 -50 -51q-51 0 -51 51q0 49 51 49zM545 671q0 -51 -51 -51t-51 51q0 49 51 49t51 -49zM717 541h51q14 0 11 -14l-89 -412q-18 -81 -36 -100q-17 -20 -70 -20q-54 0 -70 18q-14 19 -34 102l-72 302l-72 -302q-20 -84 -35 -102t-69 -18
q-53 0 -71 20q-17 20 -35 100l-89 412q-3 14 11 14h51q8 0 11 -14l87 -407q8 -36 14.5 -46.5t19.5 -10.5q15 0 20.5 9t14.5 48l96 386q4 16 13 16h66q9 0 13 -16l96 -386q9 -39 14.5 -48t20.5 -9q13 0 19.5 10.5t14.5 46.5l87 407q3 14 11 14z" />
    <glyph glyph-name="Ygrave" unicode="&#x1ef2;" horiz-adv-x="638" 
d="M199 948h63q8 0 11 -6l74 -119q5 -8 -2 -12l-14 -11q-6 -4 -13 1l-124 120q-4 5 -4 10v8q0 9 9 9zM563 748h55q20 0 10 -18l-271 -508v-209q0 -13 -12 -13h-51q-13 0 -13 13v209l-270 508q-11 18 9 18h55q15 0 22 -13l222 -427l222 427q7 13 22 13z" />
    <glyph glyph-name="ygrave" unicode="&#x1ef3;" horiz-adv-x="581" 
d="M186 748h63q8 0 11 -6l74 -119q5 -8 -2 -12l-14 -11q-6 -4 -13 1l-124 120q-4 4 -4 10v8q0 9 9 9zM446 541h47q13 0 13 -13v-485q0 -78 -9.5 -121.5t-34.5 -71.5q-24 -29 -65 -40t-114 -11q-77 0 -140 7q-12 2 -12 14v31q0 12 12 12h140q92 0 120 28q30 27 30 104v8
q-66 -8 -143 -8q-75 0 -115.5 12t-64.5 44q-23 32 -31.5 81t-8.5 139v257q0 13 12 13h47q13 0 13 -13v-255q0 -133 26 -174q25 -40 122 -40q76 0 143 9v460q0 13 13 13z" />
    <glyph glyph-name="uni1EF8" unicode="&#x1ef8;" horiz-adv-x="638" 
d="M252 927q21 0 69 -23q45 -22 63 -22q19 0 28.5 7.5t18.5 30.5q6 13 16 10l18 -4q13 -4 10 -20q-16 -53 -34 -71t-55 -18q-24 0 -69 22q-48 23 -62 23q-19 0 -28.5 -8t-19.5 -31q-4 -13 -15 -10l-19 5q-12 4 -9 19q16 54 34 72t54 18zM563 748h55q20 0 10 -18l-271 -508
v-209q0 -13 -12 -13h-51q-13 0 -13 13v209l-270 508q-11 18 9 18h55q15 0 22 -13l222 -427l222 427q7 13 22 13z" />
    <glyph glyph-name="uni1EF9" unicode="&#x1ef9;" horiz-adv-x="581" 
d="M232 727q21 0 69 -23q45 -22 62 -22q20 0 29.5 7.5t18.5 30.5q4 8 6.5 10t9.5 0l18 -4q14 -6 9 -20q-16 -53 -33.5 -71t-54.5 -18q-24 0 -69 22q-48 23 -62 23q-19 0 -28.5 -8t-19.5 -31q-4 -8 -6.5 -10t-9.5 0l-18 5q-12 4 -9 19q16 52 34 72q16 18 54 18zM446 541h47
q13 0 13 -13v-485q0 -78 -9.5 -121.5t-34.5 -71.5q-24 -29 -65 -40t-114 -11q-77 0 -140 7q-12 2 -12 14v31q0 12 12 12h140q92 0 120 28q30 27 30 104v8q-66 -8 -143 -8q-75 0 -115.5 12t-64.5 44q-23 32 -31.5 81t-8.5 139v257q0 13 12 13h47q13 0 13 -13v-255
q0 -133 26 -174q25 -40 122 -40q76 0 143 9v460q0 13 13 13z" />
    <glyph glyph-name="endash" unicode="&#x2013;" horiz-adv-x="625" 
d="M82 295h460q13 0 13 -13v-42q0 -13 -13 -13h-460q-12 0 -12 13v42q0 13 12 13z" />
    <glyph glyph-name="emdash" unicode="&#x2014;" horiz-adv-x="861" 
d="M82 295h696q13 0 13 -13v-42q0 -13 -13 -13h-696q-12 0 -12 13v42q0 13 12 13z" />
    <glyph glyph-name="quoteleft.001" unicode="&#x2018;" horiz-adv-x="239" 
d="M180 747l16 -8q7 -4 3 -13l-69 -232q-3 -7 -12 -7h-65q-9 0 -9 9v11q0 4 5 12l119 224q5 8 12 4z" />
    <glyph glyph-name="quoteright" unicode="&#x2019;" horiz-adv-x="233" 
d="M129 748h65q9 0 9 -8v-12q0 -4 -5 -12l-118 -224q-6 -8 -13 -4l-16 9q-7 3 -3 12l69 232q1 7 12 7z" />
    <glyph glyph-name="quotesinglbase" unicode="&#x201a;" horiz-adv-x="228" 
d="M94 112h65q9 0 9 -9v-11q0 -7 -4 -12l-117 -220q-6 -8 -13 -4l-16 8q-7 4 -3 13l68 228q3 7 11 7z" />
    <glyph glyph-name="quotedblleft.001" unicode="&#x201c;" horiz-adv-x="400" 
d="M179 747l17 -8q6 -5 3 -13l-70 -232q-3 -7 -11 -7h-65q-9 0 -9 9v11q0 7 4 12l119 224q5 8 12 4zM341 747l17 -8q4 -4 3 -13l-70 -232q-3 -7 -11 -7h-66q-8 0 -8 9v11q0 7 4 12l119 224q5 8 12 4z" />
    <glyph glyph-name="quotedblright" unicode="&#x201d;" horiz-adv-x="405" 
d="M129 748h65q9 0 9 -8v-12q0 -4 -5 -12l-118 -224q-6 -8 -13 -4l-16 9q-7 3 -3 12l69 232q1 7 12 7zM301 748h66q8 0 8 -8v-12q0 -7 -4 -12l-119 -224q-5 -8 -12 -4l-17 9q-5 1 -3 12l70 232q1 7 11 7z" />
    <glyph glyph-name="quotedblbase" unicode="&#x201e;" horiz-adv-x="396" 
d="M94 112h65q9 0 9 -9v-11q0 -7 -4 -12l-117 -220q-6 -8 -13 -4l-16 8q-7 4 -3 13l68 228q3 7 11 7zM262 112h65q9 0 9 -9v-11l-4 -12l-118 -220q-5 -8 -12 -4l-16 8q-7 4 -3 13l68 228q1 7 11 7z" />
    <glyph glyph-name="dagger.001" unicode="&#x2020;" horiz-adv-x="465" 
d="M402 492h-134v-479q0 -13 -12 -13h-47q-13 0 -13 13v480h-132q-13 0 -13 12v39q0 13 13 13h132v179q0 12 13 12h47q12 0 12 -12v-179h134q12 0 12 -13v-39q0 -13 -12 -13z" />
    <glyph glyph-name="daggerdbl" unicode="&#x2021;" horiz-adv-x="465" 
d="M209 748h47q12 0 12 -12v-179h134q12 0 12 -13v-39q0 -13 -12 -13h-134v-215h134q12 0 12 -13v-39q0 -13 -12 -13h-134v-199q0 -13 -12 -13h-47q-13 0 -13 13v200h-132q-13 0 -13 13v38q0 13 13 13h132v216h-132q-13 0 -13 12v39q0 13 13 13h132v179q0 12 13 12z" />
    <glyph glyph-name="bullet" unicode="&#x2022;" horiz-adv-x="560" 
d="M181 372q37 32 99 32q63 0 98 -32q36 -32 36 -88t-36 -88q-35 -32 -98 -32q-62 0 -99 32q-35 32 -35 88t35 88z" />
    <glyph glyph-name="ellipsis.001" unicode="&#x2026;" horiz-adv-x="550" 
d="M104 89q46 0 46 -46q0 -48 -46 -48q-47 0 -47 48q0 46 47 46zM276 89q46 0 46 -46q0 -48 -46 -48q-48 0 -48 48q0 46 48 46zM494 43q0 -48 -47 -48t-47 48q0 46 47 46t47 -46z" />
    <glyph glyph-name="perthousand.001" unicode="&#x2030;" horiz-adv-x="1316" 
d="M384 555q0 -114 -37 -157q-36 -42 -136 -42q-99 0 -137 42q-36 44 -36 157q0 114 37 155q37 43 136 43t136 -43q37 -41 37 -155zM629 748h37q13 0 6 -13l-379 -722q-6 -13 -19 -13h-38q-13 0 -6 13l379 723q7 12 20 12zM110 555q0 -77 21.5 -106t79.5 -29t79.5 29
t21.5 106q0 76 -21.5 104.5t-79.5 28.5t-79.5 -28.5t-21.5 -104.5zM862 194q0 -114 -37 -157q-36 -42 -136 -42q-99 0 -137 42q-36 44 -36 157t36 155q37 43 137 43t136 -43q37 -41 37 -155zM1278 194q0 -114 -37 -157q-36 -42 -136 -42q-99 0 -137 42q-36 44 -36 157
t36 155q37 43 137 43t136 -43q37 -41 37 -155zM588 194q0 -78 21 -106q22 -28 80 -28t79 28q22 28 22 106q0 76 -21.5 105t-79.5 29t-79.5 -29t-21.5 -105zM1004 194q0 -78 21 -106q22 -28 80 -28t79 28q22 28 22 106q0 76 -21.5 105t-79.5 29t-79.5 -29t-21.5 -105z" />
    <glyph glyph-name="guilsinglleft" unicode="&#x2039;" horiz-adv-x="294" 
d="M176 460h46q12 0 12 -13v-6q0 -8 -5 -16l-122 -153l122 -152q5 -7 5 -16v-6q0 -13 -12 -13h-46q-9 0 -15 8l-114 148q-5 7 -5 16v31q0 9 5 16l114 148q5 8 15 8z" />
    <glyph glyph-name="guilsinglright" unicode="&#x203a;" horiz-adv-x="294" 
d="M72 460h46q10 0 15 -8l114 -148q5 -7 5 -16v-31q0 -9 -5 -16l-114 -148q-6 -8 -15 -8h-46q-12 0 -12 13v6q0 9 5 16l122 152l-122 153q-5 8 -5 16v6q0 13 12 13z" />
    <glyph glyph-name="fraction.001" unicode="&#x2044;" horiz-adv-x="140" 
d="M234 780h27q13 0 6 -15l-340 -781q-8 -14 -19 -14h-29q-13 0 -5 14l341 781q7 15 19 15z" />
    <glyph glyph-name="uni2070" unicode="&#x2070;" horiz-adv-x="386" 
d="M192 902q91 0 122 -43q31 -41 31 -162t-31 -162q-32 -42 -122 -42t-121 42q-30 42 -30 162t30 162q31 43 121 43zM192 846q-52 0 -70 -31q-17 -32 -17 -118t17 -118q18 -30 70 -30q53 0 71 30q18 31 18 118t-18 118t-71 31z" />
    <glyph glyph-name="uni2074" unicode="&#x2074;" horiz-adv-x="367" 
d="M109 899h53q6 0 3 -6l-69 -236h116v95q0 4 5 6l53 17q6 1 6 -4v-114h62q5 0 5 -5v-45q0 -5 -5 -5h-62v-101q0 -5 -6 -5h-53q-5 0 -5 5v101h-179q-5 0 -5 5v34q0 8 4 17l71 237q1 4 6 4z" />
    <glyph glyph-name="uni2075" unicode="&#x2075;" horiz-adv-x="342" 
d="M64 899h221q6 0 6 -5v-46q0 -5 -6 -5h-175l-7 -110q23 4 64 4q138 0 138 -96v-52q0 -57 -40 -76q-42 -20 -107 -20q-67 0 -106 6q-9 5 -9 11v33q0 6 5 6h101q50 0 71 12t21 44v20q0 32 -21 44t-71 12h-96q-10 0 -10 9v38l12 163q2 8 9 8z" />
    <glyph glyph-name="uni2076" unicode="&#x2076;" horiz-adv-x="351" 
d="M155 899h56q7 0 3 -6l-84 -164q22 8 60 8q131 0 131 -93v-55q0 -54 -35 -75t-108 -21q-74 0 -109.5 21t-35.5 75v52q0 30 10 49l106 205q1 4 6 4zM178 684q-46 0 -63.5 -11.5t-17.5 -44.5v-23q0 -33 17.5 -44.5t63.5 -11.5q45 0 62 11.5t17 44.5v23q0 33 -17 44.5
t-62 11.5z" />
    <glyph glyph-name="uni2077" unicode="&#x2077;" horiz-adv-x="332" 
d="M30 899h274q6 0 6 -5v-35q0 -5 -3 -8l-183 -352q-3 -3 -6 -3h-63q-6 0 -3 6l179 341h-201q-6 0 -6 5v46q0 5 6 5z" />
    <glyph glyph-name="uni2078" unicode="&#x2078;" horiz-adv-x="377" 
d="M185 902h9q134 0 134 -111q0 -68 -54 -98q65 -26 65 -92q0 -108 -146 -108h-10q-146 0 -146 108q0 71 67 104q-30 15 -42 35t-12 53q0 109 135 109zM192 846h-6q-73 0 -73 -59q0 -45 51 -55l66 -14q35 20 35 66q0 62 -73 62zM224 664l-75 17q-48 -21 -48 -68
q0 -64 83 -64h7q85 0 85 57q0 48 -52 58z" />
    <glyph glyph-name="uni2079" unicode="&#x2079;" horiz-adv-x="351" 
d="M172 901q74 0 110 -21t36 -75v-52q0 -30 -10 -49l-106 -205q-3 -3 -6 -3h-56q-6 0 -3 6l84 163q-18 -7 -60 -7q-65 0 -98 21.5t-33 70.5v55q0 61 42 79q38 17 100 17zM172 845q-44 0 -61 -11t-17 -44v-24q0 -33 16.5 -44.5t61.5 -11.5q46 0 64 11.5t18 44.5v24
q0 32 -18 43.5t-64 11.5z" />
    <glyph glyph-name="uni207D" unicode="&#x207d;" horiz-adv-x="200" 
d="M131 925h43q4 0 4 -4v-4l-2 -6q-40 -53 -57 -92q-16 -35 -19 -61q-2 -30 -2 -82q0 -70 12 -104q14 -34 66 -132l2 -6v-4q0 -3 -4 -3h-43q-5 0 -7 2q-57 64 -71 107q-12 42 -12 121v51v31q0 12 1 25q2 20 3 26q1 2 6 22t10 26q1 1 10.5 16.5t15 23t16 21t21.5 23.5
q3 3 7 3z" />
    <glyph glyph-name="uni207E" unicode="&#x207e;" horiz-adv-x="201" 
d="M27 925h43q4 0 7 -3q58 -65 70 -107q13 -39 13 -120v-52v-30q0 -12 -1 -26q-2 -21 -4 -26q-1 -2 -3.5 -12.5t-5.5 -20.5t-7 -15q-31 -54 -62 -84q-2 -2 -7 -2h-43q-4 0 -4 3v4q0 5 1 6q40 53 57 92q18 40 19 60q2 30 2 84q0 70 -13 103q-11 32 -65 132q-1 1 -1 6v4
q0 4 4 4z" />
    <glyph glyph-name="lira" unicode="&#x20a4;" horiz-adv-x="611" 
d="M432 748q54 0 104 -3q12 -1 12 -9v-47q0 -8 -13 -8h-115q-120 0 -167 -29q-46 -28 -46 -114v-140h260q13 0 13 -13v-26q0 -13 -13 -13h-260v-70h260q13 0 13 -13v-26q0 -13 -13 -13h-260v-157h356q13 0 13 -12v-42q0 -13 -13 -13h-516q-14 0 -11 13l7 42q1 12 15 12h73
v157h-56q-13 0 -13 13v26q0 13 13 13h56v70h-56q-13 0 -13 13v26q0 13 13 13h56v139q0 126 63 168q64 43 238 43z" />
    <glyph glyph-name="Euro" unicode="&#x20ac;" horiz-adv-x="614" 
d="M429 62h127q13 0 13 -12v-35q0 -13 -12 -13q-66 -7 -128 -7q-161 0 -224 63q-63 64 -70 234h-98q-13 0 -10 13l8 30q1 13 16 13h82v26v35h-67q-13 0 -10 13l7 29q3 13 16 13h56q11 166 72 227q64 62 222 62q68 0 128 -6q16 -1 11 -17l-9 -31q-4 -13 -13 -13h-117
q-118 0 -165 -47q-45 -47 -53 -175h272q13 0 9 -13l-7 -29q-3 -13 -16 -13h-260v-35v-26h245q11 0 10 -13l-8 -30q-3 -13 -16 -13h-229q7 -133 52 -182q45 -48 166 -48z" />
    <glyph glyph-name="uni20B9" unicode="&#x20b9;" horiz-adv-x="668" 
d="M70 748h548q13 0 13 -13v-28q0 -13 -13 -13h-189q42 -38 48 -135h142q12 0 12 -13v-28q0 -13 -12 -13h-141q-2 -115 -38 -160q-38 -46 -130 -56l171 -272q5 -7 2.5 -12t-12.5 -5h-44q-21 0 -33 18l-169 265h-155q-13 0 -13 13v42q0 13 13 13h101q60 0 79 1q74 2 103 20
q52 35 49 133h-332q-12 0 -12 13v28q0 13 12 13h330q-7 82 -53 104q-45 22 -176 22h-101q-12 0 -12 13v37q0 13 12 13z" />
    <glyph glyph-name="uni20BD" unicode="&#x20bd;" horiz-adv-x="680" 
d="M338 303h-127v-76h188q13 0 13 -13v-38q0 -13 -13 -13h-188v-150q0 -13 -12 -13h-51q-13 0 -13 13v150h-78q-13 0 -13 13v38q0 13 13 13h78v81h-78q-13 0 -13 12v38q0 13 13 13h78v364q0 12 13 13q88 5 190 5q52 0 102 -2q98 -6 135 -32q34 -24 49.5 -68t15.5 -122
q-1 -81 -16 -126t-51 -67q-40 -22 -93 -28q-55 -5 -142 -5zM211 686v-315h121h51q25 0 42 1l38 3q46 9 53 15q2 2 8 7t10 8.5t8.5 9t5.5 10.5q19 43 16 103q0 60 -10.5 91t-38.5 46t-71 18q-38 2 -50 2q-14 1 -62 1h-121z" />
    <glyph glyph-name="uni2113" unicode="&#x2113;" horiz-adv-x="408" 
d="M209 753q76 0 110.5 -23t34.5 -85v-340q0 -62 -35.5 -84t-112.5 -22h-60v-82q0 -32 15.5 -44t50.5 -13h95q13 0 13 -13v-31q0 -12 -12 -13q-56 -8 -96 -8q-70 0 -104.5 23.5t-34.5 83.5v543q0 60 33.5 84t102.5 24zM146 630v-367h64q41 2 56.5 13.5t15.5 43.5v310
q0 33 -15.5 46t-52.5 13t-52.5 -13t-15.5 -46z" />
    <glyph glyph-name="uni2116" unicode="&#x2116;" horiz-adv-x="1063" 
d="M1019 630q0 -124 -128 -124t-128 124q0 123 128 123t128 -123zM620 748h51q12 0 12 -12v-723q0 -13 -12 -13h-49q-18 0 -28 15l-423 634v-636q0 -13 -13 -13h-51q-13 0 -13 13v723q0 12 13 12h54q21 0 29 -4t18 -19l399 -598v609q0 12 13 12zM891 701q-73 0 -73 -71
q0 -72 73 -72q72 0 72 72q0 71 -72 71zM776 444h230q13 0 13 -12v-23q0 -13 -13 -13h-230q-13 0 -13 13v23q0 12 13 12z" />
    <glyph glyph-name="uni2117" unicode="&#x2117;" horiz-adv-x="867" 
d="M434 -8q-195 0 -286.5 92.5t-91.5 288.5t91.5 288t286.5 92q194 0 285.5 -92t91.5 -288t-91.5 -288.5t-285.5 -92.5zM434 704q-170 0 -249.5 -80t-79.5 -251q0 -169 80 -251q79 -81 249 -81q168 0 248 81q80 82 80 251q0 170 -79.5 250.5t-248.5 80.5zM446 565
q83 0 115 -26t32 -100q0 -75 -31 -97q-32 -23 -116 -23h-62v-135q0 -6 -5 -6h-58q-5 0 -5 6v371q0 5 5 5q57 5 125 5zM439 505h-55v-135h55q51 0 68 13t17 54q0 42 -17 55t-68 13z" />
    <glyph glyph-name="uni2120" unicode="&#x2120;" horiz-adv-x="1008" 
d="M228 751q60 0 125 -9q7 -3 7 -7v-38q0 -6 -7 -6h-138q-74 0 -74 -51v-8q0 -41 44 -58l123 -51q41 -17 58 -43t17 -69v-16q0 -60 -40 -83.5t-122 -23.5q-75 0 -148 9q-6 1 -6 8v37q0 6 7 6h165q39 0 57 11t18 39v10q0 42 -47 62l-127 50q-38 15 -53 40t-15 71v13
q0 58 38 82.5t118 24.5zM846 748h51q8 0 8 -10l40 -439q2 -8 -7 -8h-54q-6 0 -8 8l-29 329l-123 -316q-3 -8 -11 -8h-42q-8 0 -13 8l-123 317l-29 -330q0 -8 -8 -8h-53q-7 0 -7 7l40 440q0 9 9 9h50q19 0 28 -23l126 -326l126 326q9 24 29 24z" />
    <glyph glyph-name="trademark.001" unicode="&#x2122;" horiz-adv-x="975" 
d="M35 748h336q8 0 8 -9v-44q0 -7 -8 -7h-134v-390q0 -7 -7 -7h-53q-8 0 -8 7v390h-134q-7 0 -7 7v44q0 9 7 9zM813 748h50q9 0 9 -11l40 -438q0 -8 -7 -8h-53q-6 0 -8 8l-29 330l-124 -317q-3 -8 -12 -8h-41q-9 0 -12 8l-124 317l-29 -330q0 -8 -7 -8h-53q-8 0 -8 8l40 440
q1 9 8 9h51q20 0 29 -23l125 -328l126 328q9 23 29 23z" />
    <glyph glyph-name="Omega" unicode="&#x2126;" horiz-adv-x="853" 
d="M795 384q0 -121 -55.5 -207.5t-160.5 -118.5h188q13 0 13 -12v-33q0 -13 -13 -13h-256q-12 0 -12 13v70q0 11 11 13q88 18 150 95t62 193q0 157 -71.5 230.5t-224.5 73.5t-224.5 -73.5t-71.5 -230.5q0 -116 62 -193t151 -95q11 -2 11 -13v-70q0 -13 -12 -13h-256
q-13 0 -13 13v33q0 12 13 12h188q-105 32 -160.5 118.5t-55.5 207.5q0 190 89.5 279t278.5 89t279 -89.5t90 -278.5z" />
    <glyph glyph-name="estimated" unicode="&#x212e;" horiz-adv-x="640" 
d="M327 575q125 0 198 -85q75 -84 75 -206h-429v-193q66 -63 152 -63q72 0 120 31t90 96l31 -19q-47 -72 -102.5 -106.5t-138.5 -34.5q-119 0 -195 84q-76 85 -76 206q0 123 75 206q75 84 200 84zM327 542q-96 0 -156 -62v-163h309v163q-68 62 -153 62z" />
    <glyph glyph-name="oneeighth" unicode="&#x215b;" horiz-adv-x="832" 
d="M547 780h27q10 0 6 -15l-340 -781q-8 -14 -20 -14h-28q-14 0 -6 14l341 781q7 15 20 15zM246 395v-45q0 -5 -6 -5h-190q-5 0 -5 5v45q0 6 5 6h66v269q0 29 -36 29h-35q-6 0 -6 6v35q0 5 5 7q23 4 50 4q41 0 61.5 -14t20.5 -52v-284h64q6 0 6 -6zM731 197q65 -26 65 -92
q0 -108 -147 -108h-10q-145 0 -145 108q0 71 67 105q-30 15 -42.5 35.5t-12.5 52.5q0 109 135 109h9q135 0 135 -111q0 -69 -54 -99zM649 351h-6q-73 0 -73 -60q0 -44 50 -55l66 -13q35 20 35 65q0 63 -72 63zM641 53h7q84 0 84 58q0 46 -52 58l-75 16q-48 -19 -48 -67
q0 -65 84 -65z" />
    <glyph glyph-name="threeeighths" unicode="&#x215c;" horiz-adv-x="897" 
d="M595 780h27q14 0 6 -15l-340 -781q-8 -14 -19 -14h-29q-14 0 -6 14l342 781q6 15 19 15zM163 751q72 0 109.5 -21.5t37.5 -74.5v-29q0 -69 -67 -79q67 -10 67 -80v-29q0 -61 -46 -80q-39 -16 -101 -16q-55 0 -108 6q-10 1 -10 11v33q0 6 5 6h106q48 0 69 11t21 43v13
q1 32 -20.5 44.5t-69.5 12.5h-81q-5 0 -5 5v39q0 5 5 5h81q47 0 68.5 12.5t21.5 44.5v13q0 31 -21 42.5t-69 11.5h-106q-5 0 -5 6v34q0 9 10 10q39 6 108 6zM706 407h9q135 0 135 -111q0 -69 -55 -99q66 -25 66 -92q0 -108 -147 -108h-10q-146 0 -146 108q0 71 67 105
q-29 15 -41.5 35.5t-12.5 52.5q0 109 135 109zM713 351h-5q-73 0 -73 -60q0 -44 50 -55l66 -13q35 20 35 65q0 63 -73 63zM745 169l-75 16q-48 -19 -48 -67q0 -65 84 -65h6q85 0 85 58q0 46 -52 58z" />
    <glyph glyph-name="fiveeighths" unicode="&#x215d;" horiz-adv-x="867" 
d="M589 780h27q14 0 6 -15l-340 -781q-8 -14 -19 -14h-29q-14 0 -6 14l342 781q6 15 19 15zM70 748h221q6 0 6 -4v-47q0 -5 -6 -5h-175l-7 -110q23 4 63 4q139 0 139 -96v-52q0 -57 -40 -76q-42 -20 -107 -20q-67 0 -106 6q-9 3 -9 11v33q0 6 5 6h101q50 0 71 12t21 44v20
q0 32 -21 44t-71 12h-96q-10 0 -10 9v39l12 163q1 7 9 7zM677 407h9q134 0 134 -111q0 -69 -54 -99q65 -26 65 -92q0 -108 -146 -108h-10q-146 0 -146 108q0 71 67 105q-30 15 -42 35t-12 53q0 109 135 109zM684 351h-6q-73 0 -73 -60q0 -45 51 -55l66 -13q35 20 35 65
q0 63 -73 63zM716 169l-75 16q-48 -19 -48 -67q0 -65 83 -65h7q85 0 85 58q0 46 -52 58z" />
    <glyph glyph-name="seveneighths" unicode="&#x215e;" horiz-adv-x="821" 
d="M518 780h27q11 0 6 -15l-340 -781q-8 -14 -19 -14h-29q-14 0 -6 14l342 781q6 15 19 15zM36 748h274q5 0 5 -4v-36q0 -2 -2 -8l-184 -352q-1 -3 -6 -3h-62q-6 0 -3 6l179 341h-201q-6 0 -6 5v47q0 4 6 4zM630 407h9q135 0 135 -111q0 -69 -55 -99q65 -26 65 -92
q0 -108 -146 -108h-10q-146 0 -146 108q0 71 67 105q-30 15 -42 35t-12 53q0 109 135 109zM637 351h-6q-73 0 -73 -60q0 -45 51 -55l66 -13q35 20 35 65q0 63 -73 63zM669 169l-75 16q-48 -19 -48 -67q0 -65 83 -65h7q85 0 85 58q0 46 -52 58z" />
    <glyph glyph-name="arrowleft" unicode="&#x2190;" horiz-adv-x="870" 
d="M376 470h24q9 0 9 -8v-145h362q12 0 12 -13v-43q0 -13 -12 -13h-362v-144q0 -9 -9 -9h-24q-4 0 -16 5l-273 157q-8 3 -8 15v21q0 12 8 15l274 157z" />
    <glyph glyph-name="arrowup" unicode="&#x2191;" horiz-adv-x="509" 
d="M244 635h21q12 0 15 -8l157 -273q5 -12 5 -16v-24q0 -9 -8 -9h-145v-362q0 -13 -13 -13h-43q-13 0 -13 13v362h-144q-9 0 -9 9v24l5 15l157 274q3 8 15 8z" />
    <glyph glyph-name="arrowright" unicode="&#x2192;" horiz-adv-x="869" 
d="M469 470h24q3 0 15 -5l275 -157q7 -3 7 -15v-21q0 -12 -7 -15l-274 -157q-8 -5 -16 -5h-24q-8 0 -8 9v144h-362q-13 0 -13 13v43q0 13 13 13h362v145q0 8 8 8z" />
    <glyph glyph-name="arrowdown" unicode="&#x2193;" horiz-adv-x="509" 
d="M233 635h43q13 0 13 -13v-362h145q8 0 8 -8v-24q0 -8 -5 -16l-157 -274q-3 -8 -15 -8h-21q-12 0 -15 8l-157 274q-5 8 -5 16v24q0 8 9 8h144v362q0 13 13 13z" />
    <glyph glyph-name="arrowboth" unicode="&#x2194;" horiz-adv-x="1069" 
d="M669 470h24q2 0 15 -5l275 -157q7 -3 7 -15v-21q0 -12 -7 -15l-274 -157q-12 -5 -16 -5h-24q-9 0 -9 9v144h-251v-144q0 -9 -9 -9h-24q-4 0 -16 5l-273 157q-8 3 -8 15v21q0 12 8 15l274 157l15 5h24q9 0 9 -8v-145h251v145q0 8 9 8z" />
    <glyph glyph-name="arrowupdn" unicode="&#x2195;" horiz-adv-x="540" 
d="M259 739h21q11 0 16 -8l157 -273q4 -7 4 -17v-24q0 -8 -8 -8h-145v-252h145q8 0 8 -8v-24q0 -7 -4 -16l-158 -274q-4 -10 -15 -8l-21 -1q-11 0 -15 9l-157 275q-5 12 -5 15v24q0 8 9 8h144v252h-144q-9 0 -9 9v23q0 1 5 16l157 274q5 8 15 8z" />
    <glyph glyph-name="uni2196" unicode="&#x2196;" horiz-adv-x="669" 
d="M109 547l305 -82q12 -5 14 -8l17 -17q7 -4 0 -12l-102 -103l256 -256q11 -9 0 -17l-31 -31q-9 -7 -18 0l-255 256l-103 -102q-6 -6 -12 0l-16 17q-4 4 -8 14l-83 305q-3 8 5 16l15 15q8 8 16 5z" />
    <glyph glyph-name="uni2197" unicode="&#x2197;" horiz-adv-x="668" 
d="M254 464l305 84q7 1 17 -6l14 -14q9 -9 6 -16l-83 -305q-3 -10 -8 -15l-17 -17q-6 -6 -12 0l-102 102l-256 -256q-9 -7 -18 0l-31 31q-9 9 0 18l256 256l-102 102q-6 6 0 12l17 17q3 3 14 7z" />
    <glyph glyph-name="uni2198" unicode="&#x2198;" horiz-adv-x="670" 
d="M117 544l256 -256l102 103q5 5 12 -1l17 -17q4 -3 7 -14l84 -305q2 -8 -6 -16l-15 -15q-8 -8 -16 -6l-304 83q-11 3 -16 8l-16 17q-5 8 -1 12l103 102l-256 256q-9 10 0 19l30 30q9 9 19 0z" />
    <glyph glyph-name="uni2199" unicode="&#x2199;" horiz-adv-x="668" 
d="M571 544l30 -31q7 -9 0 -18l-256 -256l102 -102q6 -6 0 -12l-17 -17q-3 -4 -14 -8l-305 -83q-8 -2 -16 5l-15 16q-9 9 -5 16l82 304q2 9 8 16l17 16q4 8 12 0l103 -102l255 256q10 7 19 0z" />
    <glyph glyph-name="partialdiff" unicode="&#x2202;" horiz-adv-x="626" 
d="M396 748h58q10 0 13 -8l104 -387q11 -51 -7 -122l-4 -22q-29 -116 -101 -165t-208 -49t-184.5 49t-19.5 164l4 25q29 115 101.5 164t208.5 49q63 0 102 -14l-80 301q-3 15 13 15zM343 378q-94 0 -145 -34t-71 -114l-3 -20q-20 -79 15 -113.5t129 -34.5t146 34.5t70 114.5
l4 19q19 81 -15.5 114.5t-129.5 33.5z" />
    <glyph glyph-name="Delta" unicode="&#x2206;" horiz-adv-x="673" 
d="M307 701h62q11 0 15 -10l263 -670q3 -8 3 -10v-6q0 -5 -7 -5h-613q-7 0 -7 5v6q0 4 3 10l266 670q6 10 15 10zM563 70l-225 563l-218 -563h443z" />
    <glyph glyph-name="product.001" unicode="&#x220f;" horiz-adv-x="658" 
d="M21 802h615q13 0 13 -12v-38q0 -13 -13 -13h-85v-789q0 -13 -13 -13h-42q-13 0 -13 13v789h-308v-789q0 -13 -13 -13h-42q-13 0 -13 13v789h-86q-13 0 -13 13v38q0 12 13 12z" />
    <glyph glyph-name="summation.001" unicode="&#x2211;" horiz-adv-x="570" 
d="M31 802h461q12 0 12 -12v-42q0 -12 -12 -12h-380l225 -344q5 -7 5 -16v-7q0 -9 -5 -16l-228 -343h428q13 0 13 -13v-41q0 -13 -13 -13h-508q-13 0 -13 13v28q0 4 5 16l232 354q5 8 5 15v5q0 9 -4 16l-230 355q-6 7 -6 16v29q0 12 13 12z" />
    <glyph glyph-name="minus" unicode="&#x2212;" horiz-adv-x="519" 
d="M85 342h349q13 0 13 -12v-43q0 -13 -13 -13h-349q-13 0 -13 13v43q0 12 13 12z" />
    <glyph glyph-name="radical" unicode="&#x221a;" horiz-adv-x="553" 
d="M470 811h50q16 0 11 -15l-203 -849q-2 -11 -14 -11h-48q-11 0 -14 11l-149 423l-59 -28q-12 -8 -17 7l-15 36q-6 12 6 17l120 55q13 6 17 -7l129 -375l172 725q3 11 14 11z" />
    <glyph glyph-name="infinity.001" unicode="&#x221e;" horiz-adv-x="870" 
d="M645 463q87 0 127 -39.5t40 -127.5q0 -87 -40 -127t-127 -40q-86 2 -159 73l-50 49l-52 -49q-76 -73 -159 -73q-87 0 -127 40t-40 127q0 88 40 127.5t127 39.5q83 0 159 -72l52 -49l50 49q74 72 159 72zM232 398q-55 0 -80 -24.5t-25 -77.5t25 -77t80 -24q50 0 111 58
l45 43l-46 45q-62 57 -110 57zM532 346l-50 -50l50 -49q52 -52 106 -52t79 24.5t25 76.5q0 53 -25 77q-25 25 -79 25t-106 -52z" />
    <glyph glyph-name="integral.001" unicode="&#x222b;" horiz-adv-x="377" 
d="M269 792q46 0 81 -7q11 -3 11 -13v-31q0 -13 -13 -13h-54q-40 0 -62 -8q-26 -10 -26 -49q0 -104 19 -300q19 -194 19 -300q0 -58 -35 -82q-15 -12 -36 -16q-28 -8 -65 -8q-33 0 -81 7q-11 3 -11 13v32q0 12 13 12h54q47 -1 66 9t23 48q0 95 -20 300q-19 194 -19 300
q0 57 34 83q13 11 36 15q29 8 66 8z" />
    <glyph glyph-name="approxequal.001" unicode="&#x2248;" horiz-adv-x="624" 
d="M190 536q39 2 118.5 -49t107.5 -49q59 0 84 52q6 13 17 5l30 -20q8 -5 4 -15q-15 -43 -50.5 -69t-82.5 -26q-56 0 -119 49q-62 50 -107 50q-58 0 -81 -53q-8 -12 -16 -5l-30 18q-8 6 -5 16q13 43 48 69.5t82 26.5zM204 348q39 2 119 -49t107 -49q58 0 84 51q6 13 17 5
l30 -19q8 -5 4 -15q-15 -43 -50.5 -69t-82.5 -26q-32 -2 -76 23.5t-84.5 51t-65.5 23.5q-59 0 -81 -52q-6 -12 -16 -5l-30 18q-9 5 -5 15q13 43 48 70t82 27z" />
    <glyph glyph-name="notequal.001" unicode="&#x2260;" horiz-adv-x="640" 
d="M449 621h32q12 0 6 -14l-58 -132h126q13 0 13 -13v-43q0 -13 -13 -13h-155l-78 -178h233q13 0 13 -13v-43q0 -13 -13 -13h-263l-52 -119q-6 -14 -19 -14h-33q-12 0 -6 14l52 119h-149q-13 0 -13 13v43q0 13 13 13h179l78 178h-257q-13 0 -13 13v43q0 13 13 13h287l58 132
q6 14 19 14z" />
    <glyph glyph-name="lessequal" unicode="&#x2264;" horiz-adv-x="579" 
d="M498 601h7q4 0 4 -4v-53q0 -11 -10 -15l-348 -121l348 -122q10 -4 10 -15v-53q0 -4 -4 -4h-7q-5 0 -6 1l-416 151q-10 3 -10 14v55q0 11 10 14l416 151q1 1 6 1zM79 157h416q13 0 13 -12v-40q0 -13 -13 -13h-416q-13 0 -13 13v40q0 12 13 12z" />
    <glyph glyph-name="greaterequal" unicode="&#x2265;" horiz-adv-x="579" 
d="M74 601h7q5 0 6 -1l416 -151q10 -3 10 -14v-55q0 -11 -10 -14l-416 -151q-1 -1 -6 -1h-7q-4 0 -4 4v53q0 11 10 15l348 122l-348 121q-10 4 -10 15v53q0 4 4 4zM84 157h416q13 0 13 -12v-40q0 -13 -13 -13h-416q-13 0 -13 13v40q0 12 13 12z" />
    <glyph glyph-name="uni2460" unicode="&#x2460;" horiz-adv-x="800" 
d="M37 375q0 178 93 270.5t270 92.5q178 0 270.5 -92t92.5 -271q0 -177 -93 -269.5t-270 -92.5t-270 92.5t-93 269.5zM400 58q318 0 318 317q0 318 -318 318q-317 0 -317 -318q0 -317 317 -317zM450 513v-284h64q6 0 6 -6v-45q0 -5 -6 -5h-190q-5 0 -5 6v44q0 6 5 6h66v270
q0 28 -36 28h-35q-6 0 -6 6v35q0 5 5 7q23 4 50 4q41 0 61.5 -14t20.5 -52z" />
    <glyph glyph-name="uni2461" unicode="&#x2461;" horiz-adv-x="800" 
d="M37 375q0 178 93 270.5t270 92.5q180 0 271 -93q92 -94 92 -270q0 -177 -93 -270q-94 -92 -270 -92q-177 0 -270 92.5t-93 269.5zM400 58q318 0 318 317q0 318 -318 318q-317 0 -317 -318q0 -317 317 -317zM381 579q75 0 112 -21.5t37 -75.5v-40q0 -34 -10.5 -54.5
t-43.5 -42.5l-97 -63q-40 -25 -40 -42v-11h194q4 0 4 -3v-50q0 -3 -4 -3h-255q-14 0 -14 15v43q0 27 11.5 43t46.5 40l114 78q30 20 30 61v13q0 32 -21.5 44.5t-70.5 12.5h-93q-5 0 -5 6v34q0 9 9 10q39 6 96 6z" />
    <glyph glyph-name="uni2462" unicode="&#x2462;" horiz-adv-x="800" 
d="M37 375q0 178 93 270.5t270 92.5t270 -93.5t93 -269.5q0 -177 -93 -269.5t-270 -92.5t-270 92.5t-93 269.5zM400 58q318 0 318 317q0 318 -318 318q-317 0 -317 -318q0 -317 317 -317zM387 579q72 0 109 -21.5t37 -74.5v-29q0 -69 -67 -79q67 -10 67 -80v-29
q0 -61 -46 -80q-39 -16 -100 -16q-57 0 -109 6q-10 1 -10 11v33q0 6 5 6h106q49 0 69.5 11t20.5 43v13q1 32 -20.5 44.5t-69.5 12.5h-81q-5 0 -5 5v39q0 5 5 5h81q47 0 68.5 12.5t21.5 44.5v13q0 31 -20.5 42.5t-69.5 11.5h-106q-5 0 -5 6v34q0 9 10 10q39 6 109 6z" />
    <glyph glyph-name="uni2463" unicode="&#x2463;" horiz-adv-x="800" 
d="M37 375q0 178 93 270.5t270 92.5t270 -93.5t93 -269.5q0 -177 -93 -269.5t-270 -92.5t-270 92.5t-93 269.5zM400 58q318 0 318 317q0 318 -318 318q-317 0 -317 -318q0 -317 317 -317zM323 576h54q6 0 3 -5l-69 -236h116v95q0 5 4 6l54 17q6 1 6 -5v-113h61q6 0 6 -5v-46
q0 -5 -6 -5h-61v-100q0 -6 -6 -6h-53q-5 0 -5 6v100h-179q-5 0 -5 5v34q0 8 4 17l70 238q1 3 6 3z" />
    <glyph glyph-name="uni2464" unicode="&#x2464;" horiz-adv-x="800" 
d="M37 375q0 178 93 270.5t270 92.5t270 -93.5t93 -269.5q0 -177 -93 -269.5t-270 -92.5t-270 92.5t-93 269.5zM400 58q318 0 318 317q0 318 -318 318q-317 0 -317 -318q0 -317 317 -317zM290 576h222q5 0 5 -4v-47q0 -5 -5 -5h-176l-7 -110q17 4 64 4q67 0 102.5 -21.5
t35.5 -74.5v-51q0 -54 -37 -75.5t-110 -21.5q-67 0 -106 6q-9 4 -9 11v33q0 6 5 6h102q49 0 70 12t21 44v20q0 32 -21 44t-70 12h-96q-11 0 -11 9v39l13 163q0 7 8 7z" />
    <glyph glyph-name="uni2465" unicode="&#x2465;" horiz-adv-x="800" 
d="M37 375q0 178 93 270.5t270 92.5t270 -93.5t93 -269.5q0 -177 -93 -269.5t-270 -92.5t-270 92.5t-93 269.5zM400 58q318 0 318 317q0 318 -318 318q-317 0 -317 -318q0 -317 317 -317zM378 576h56q7 0 4 -6l-84 -163q20 7 59 7q132 0 132 -93v-55q0 -54 -35 -75t-108 -21
q-74 0 -109.5 21t-35.5 75v52q0 30 9 50l106 205q2 3 6 3zM402 361q-46 0 -64 -11.5t-18 -44.5v-23q0 -33 18 -44.5t64 -11.5q44 0 61.5 11.5t17.5 44.5v23q0 33 -17 44.5t-62 11.5z" />
    <glyph glyph-name="uni2466" unicode="&#x2466;" horiz-adv-x="800" 
d="M37 375q0 178 93 270.5t270 92.5t270 -93.5t93 -269.5q0 -177 -93 -269.5t-270 -92.5t-270 92.5t-93 269.5zM400 58q318 0 318 317q0 318 -318 318q-317 0 -317 -318q0 -317 317 -317zM264 576h274q5 0 5 -4v-36q0 -1 -2 -7l-184 -352q-1 -4 -6 -4h-62q-6 0 -3 6l179 341
h-201q-6 0 -6 5v47q0 4 6 4z" />
    <glyph glyph-name="uni2467" unicode="&#x2467;" horiz-adv-x="800" 
d="M37 375q0 178 93 270.5t270 92.5t270 -93.5t93 -269.5q0 -177 -93 -269.5t-270 -92.5t-270 92.5t-93 269.5zM400 58q318 0 318 317q0 318 -318 318q-317 0 -317 -318q0 -317 317 -317zM397 579h9q69 0 102 -27t33 -84q0 -68 -54 -98q65 -26 65 -92q0 -108 -147 -108h-10
q-146 0 -146 108q0 71 67 104q-54 28 -54 88q0 109 135 109zM403 523h-5q-73 0 -73 -59q0 -44 50 -55l66 -14q35 20 35 66q0 62 -73 62zM436 341l-75 17q-48 -21 -48 -68q0 -64 84 -64h6q85 0 85 57q0 48 -52 58z" />
    <glyph glyph-name="uni2468" unicode="&#x2468;" horiz-adv-x="800" 
d="M37 375q0 178 93 270.5t270 92.5t270 -93.5t93 -269.5q0 -177 -93 -269.5t-270 -92.5t-270 92.5t-93 269.5zM400 58q318 0 318 317q0 318 -318 318q-317 0 -317 -318q0 -317 317 -317zM399 579q74 0 110 -21t36 -75v-53q0 -29 -11 -48l-106 -205q-1 -4 -6 -4h-55
q-7 0 -4 6l85 164q-21 -8 -60 -8q-65 0 -98 21.5t-33 71.5v55q0 54 34.5 75t107.5 21zM399 523q-44 0 -61.5 -11.5t-17.5 -44.5v-24q0 -32 17.5 -44t61.5 -12q45 0 63.5 12t18.5 44v24q0 33 -18 44.5t-64 11.5z" />
    <glyph glyph-name="uni24EA" unicode="&#x24ea;" horiz-adv-x="800" 
d="M400 738q179 0 271 -92.5t92 -270.5q0 -177 -93 -269.5t-270 -92.5t-270.5 92.5t-93.5 269.5t93.5 270t270.5 93zM400 58q317 0 317 317q0 318 -317 318q-318 0 -318 -318q0 -317 318 -317zM399 580q91 0 121 -43q31 -41 31 -162t-31 -162q-30 -42 -121 -42
q-89 0 -121 42q-30 42 -30 162t30 162q31 43 121 43zM470 493q-18 31 -71 31t-71 -31q-17 -32 -17 -118t17 -118q18 -30 71 -30t71 30q18 32 18 118q0 87 -18 118z" />
    <glyph glyph-name="uni24FF" unicode="&#x24ff;" horiz-adv-x="800" 
d="M740 355q0 -168 -86 -254t-254 -86t-254.5 86t-86.5 254t86.5 254t254.5 86t254 -86.5t86 -253.5zM399 560q-90 0 -121 -43q-30 -42 -30 -162t30 -162q32 -42 121 -42q91 0 121 42q31 41 31 162t-31 162q-30 43 -121 43zM329 473q16 31 70 31q53 0 71 -31q18 -32 18 -118
q0 -87 -18 -118q-18 -30 -71 -30t-71 30q-17 32 -17 118q0 87 18 118z" />
    <glyph glyph-name="lozenge.001" unicode="&#x25ca;" horiz-adv-x="541" 
d="M255 710h31q10 0 15 -8l212 -346q4 -8 -1 -17l-211 -331q-5 -8 -15 -8h-31q-11 0 -16 8l-210 331q-5 9 -1 17l211 346q5 8 16 8zM429 357l-150 247q-9 15 -17 0l-150 -247q-5 -8 0 -16l150 -240q8 -14 17 0l150 239q5 8 0 17z" />
    <glyph glyph-name="uni261E" unicode="&#x261e;" horiz-adv-x="853" 
d="M635 599l154 -3q49 0 65.5 -14t16.5 -55q0 -42 -16.5 -56t-65.5 -14h-56q5 -12 5 -28q0 -27 -17 -42q17 -17 17 -45q0 -27 -17 -42q17 -17 17 -45q0 -29 -13 -41t-51 -19q-170 -23 -259 -22q-90 1 -216 31v-38q0 -8 -7 -8h-135q-5 0 -6 4q-1 1 -1 3q-60 195 0 389
q1 7 7 7h134q8 0 8 -7v-25q102 43 188 56q90 14 248 14zM516 493h273q27 0 36.5 7t9.5 27t-9.5 26.5t-38.5 6.5l-152 3q-159 0 -248 -15q-84 -13 -188 -58v-248q107 -30 198 -33q92 -3 259 18q27 4 36 9.5t9 18.5q0 16 -9.5 21.5t-36.5 5.5h-140q-7 0 -7 8v22q0 7 7 7h141
q27 0 36 4.5t9 18.5q0 17 -9.5 22.5t-36.5 5.5h-140q-7 0 -7 7v22q0 7 7 7h141q27 0 36 4.5t9 18.5q0 17 -9.5 22.5t-36.5 5.5h-139q-7 0 -7 7v22q0 7 7 7zM163 195v330h-85q-46 -151 -3 -330h88z" />
    <glyph glyph-name="uni267C" unicode="&#x267c;" horiz-adv-x="800" 
d="M754 378q0 -147 -104 -251q-103 -103 -250 -103t-250 103q-104 104 -104 251q0 146 104 250t250 104t250 -104t104 -250zM405 562l41 -69l-39 -24l129 1l63 112l-42 -25l-28 46q-16 25 -41 31l-8 1l-162 1q-35 -4 -52 -26l-4 -8l-57 -98l114 -65l71 125q10 10 15 -2z
M555 274l-81 -1v46l-64 -112l65 -112v49l54 1q28 0 47 21l5 6l81 140q16 33 4 58l-4 8l-57 97l-113 -64l72 -126q2 -5 -0.5 -8.5t-8.5 -2.5zM230 288l40 71l40 -23l-66 111l-128 -1l42 -24l-26 -47q-15 -27 -6 -51l3 -8l81 -140q24 -32 50 -32h8h113l-1 130h-144
q-14 2 -6 14z" />
    <glyph glyph-name="uni2776" unicode="&#x2776;" horiz-adv-x="800" 
d="M740 355q0 -168 -86 -254t-254 -86t-254 86t-86 254t86 254t254 86t254 -86.5t86 -253.5zM514 209h-64v284q0 38 -20.5 52t-61.5 14q-27 0 -50 -4q-5 -2 -5 -7v-35q0 -6 6 -6h35q36 0 36 -28v-270h-66q-5 0 -5 -6v-44q0 -6 5 -6h190q6 0 6 5v45q0 6 -6 6z" />
    <glyph glyph-name="uni2777" unicode="&#x2777;" horiz-adv-x="800" 
d="M740 355q0 -168 -86 -254t-254 -86t-254 86t-86 254t86 254t254 86t254 -86.5t86 -253.5zM381 559q-57 0 -96 -6q-9 -1 -9 -10v-34q0 -6 5 -6h93q49 0 70.5 -12.5t21.5 -44.5v-13q0 -41 -30 -61l-114 -78q-35 -24 -46.5 -40t-11.5 -43v-43q0 -15 14 -15h255q4 0 4 3v50
q0 3 -4 3h-194v11q0 17 40 42l97 63q33 22 43.5 42.5t10.5 54.5v40q0 54 -37 75.5t-112 21.5z" />
    <glyph glyph-name="uni2778" unicode="&#x2778;" horiz-adv-x="800" 
d="M740 355q0 -168 -86 -254t-254 -86t-254 86t-86 254t86 254t254 86t254 -86.5t86 -253.5zM387 559q-70 0 -109 -6q-10 -1 -10 -10v-34q0 -6 5 -6h106q49 0 69.5 -11.5t20.5 -42.5v-13q0 -32 -21.5 -44.5t-68.5 -12.5h-81q-5 0 -5 -5v-39q0 -5 5 -5h81q48 0 69.5 -12.5
t20.5 -44.5v-13q0 -32 -20.5 -43t-69.5 -11h-106q-5 0 -5 -6v-33q0 -10 10 -11q52 -6 109 -6q61 0 100 16q46 19 46 80v29q0 70 -67 80q67 10 67 79v29q0 53 -37 74.5t-109 21.5z" />
    <glyph glyph-name="uni2779" unicode="&#x2779;" horiz-adv-x="800" 
d="M740 355q0 -168 -86 -254t-254 -86t-254 86t-86 254t86 254t254 86t254 -86.5t86 -253.5zM377 556h-54q-5 0 -6 -3l-70 -238q-4 -9 -4 -17v-34q0 -5 5 -5h179v-100q0 -6 5 -6h53q6 0 6 6v100h61q6 0 6 5v46q0 5 -6 5h-61v113q0 6 -6 5l-54 -17q-4 -1 -4 -6v-95h-116
l69 236q3 5 -3 5z" />
    <glyph glyph-name="uni277A" unicode="&#x277a;" horiz-adv-x="800" 
d="M740 355q0 -168 -86 -254t-254 -86t-254 86t-86 254t86 254t254 86t254 -86.5t86 -253.5zM512 556h-222q-8 0 -8 -7l-13 -163v-39q0 -9 11 -9h96q49 0 70 -12t21 -44v-20q0 -32 -21 -44t-70 -12h-102q-5 0 -5 -6v-33q0 -7 9 -11q39 -6 106 -6q73 0 110 21.5t37 75.5v51
q0 53 -35.5 74.5t-102.5 21.5q-47 0 -64 -4l7 110h176q5 0 5 5v47q0 4 -5 4z" />
    <glyph glyph-name="uni277B" unicode="&#x277b;" horiz-adv-x="800" 
d="M740 355q0 -168 -86 -254t-254 -86t-254 86t-86 254t86 254t254 86t254 -86.5t86 -253.5zM434 556h-56q-4 0 -6 -3l-106 -205q-9 -20 -9 -50v-52q0 -54 35.5 -75t109.5 -21q73 0 108 21t35 75v55q0 93 -132 93q-39 0 -59 -7l84 163q3 6 -4 6zM402 341q45 0 62 -11.5
t17 -44.5v-23q0 -33 -17.5 -44.5t-61.5 -11.5q-46 0 -64 11.5t-18 44.5v23q0 33 18 44.5t64 11.5z" />
    <glyph glyph-name="uni277C" unicode="&#x277c;" horiz-adv-x="800" 
d="M740 355q0 -168 -86 -254t-254 -86t-254 86t-86 254t86 254t254 86t254 -86.5t86 -253.5zM538 556h-274q-6 0 -6 -4v-47q0 -5 6 -5h201l-179 -341q-3 -6 3 -6h62q5 0 6 4l184 352q2 6 2 7v36q0 4 -5 4z" />
    <glyph glyph-name="uni277D" unicode="&#x277d;" horiz-adv-x="800" 
d="M740 355q0 -168 -86 -254t-254 -86t-254 86t-86 254t86 254t254 86t254 -86.5t86 -253.5zM406 559h-9q-135 0 -135 -109q0 -60 54 -88q-67 -33 -67 -104q0 -108 146 -108h10q147 0 147 108q0 66 -65 92q54 30 54 98q0 57 -33 84t-102 27zM398 503h5q73 0 73 -62
q0 -46 -35 -66l-66 14q-50 11 -50 55q0 59 73 59zM361 338l75 -17q52 -10 52 -58q0 -57 -85 -57h-6q-84 0 -84 64q0 47 48 68z" />
    <glyph glyph-name="uni277E" unicode="&#x277e;" horiz-adv-x="800" 
d="M740 355q0 -168 -86 -254t-254 -86t-254 86t-86 254t86 254t254 86t254 -86.5t86 -253.5zM399 559q-73 0 -107.5 -21t-34.5 -75v-55q0 -50 33 -71.5t98 -21.5q39 0 60 8l-85 -164q-3 -6 4 -6h55q5 0 6 4l106 205q11 19 11 48v53q0 54 -36 75t-110 21zM399 503
q46 0 64 -11.5t18 -44.5v-24q0 -32 -18.5 -44t-63.5 -12q-44 0 -61.5 12t-17.5 44v24q0 33 17.5 44.5t61.5 11.5z" />
    <glyph glyph-name="uniF8FF" unicode="&#xf8ff;" horiz-adv-x="921" 
d="M871 20h-821v700h821v-700zM491 387q12 0 16 7h1l2 -6h8v73h-11v-19q0 -6 1 -9h-1q-5 8 -15 8t-16 -7q-13 -20 0 -40q6 -7 15 -7zM644 449q1 -1 5 -1t5 1q2 5 0 10q-1 1 -5 1t-5 -1q-2 -5 0 -10zM161 388h10l20 57h1q0 -6 -1 -10v-47h11v69h-16l-20 -55l-19 55h-16v-69
h10v33q0 19 -1 25h1zM351 396q-3 0 -5 2t-2 6v28h15v8h-15v12h-7l-4 -11l-8 -4v-5h8v-29q0 -16 15 -16h6q3 0 5 2v8q-1 -1 -8 -1zM261 434q-6 7 -18 7t-19 -7q-6 -7 -6 -20q0 -8 3 -14q3 -7 9 -10q4 -3 13 -3q12 0 18 7q15 20 0 40zM318 403q0 1 -1 3t-1 3l-4 5l-10 4l-10 5
q-2 2 -2 4q0 5 9 5q5 0 14 -3l4 8q-20 9 -33 0q-5 -3 -5 -10q0 -6 3 -9q3 -4 12 -7l8 -4q3 0 3 -2q2 -2 2 -4q0 -6 -11 -6q-6 0 -17 4v-9q6 -3 17 -3t16 4q6 5 6 12zM405 388h7v35q0 9 -5 14q-4 4 -15 4q-7 0 -9 -1t-5.5 -2.5t-4.5 -1.5l4 -8q3 3 7 3q2 1 8 1q5 0 7 -2t2 -8
v-2l-9 -1q-14 0 -18 -4q-6 -5 -6 -12q0 -11 9.5 -15t16.5 0q2 1 8 7zM461 430l1 11h-5q-6 0 -9 -3q-6 -4 -7 -7h-1l-1 9h-9v-52h11v27q0 6 4 11q5 5 11 5q4 0 5 -1zM559 387h10l8 3v9l-9 -3h-3q-3 -1 -5 -1q-8 0 -11 5q-4 3 -4 11h35v6q0 16 -14.5 22.5t-25.5 -5.5
q-7 -7 -7 -21q0 -26 26 -26zM629 403q0 6 -5 11l-10 4l-10 5q-2 2 -2 4q0 5 9 5q5 0 14 -3l4 8q-20 9 -33 0q-5 -3 -5 -10q0 -6 3 -9q3 -4 12 -7l8 -4q3 0 3 -2q1 -1 1 -4q0 -6 -10 -6q-6 0 -17 4v-9q11 -5 26 -1.5t12 14.5zM717 434v6h-18h-1q-1 1 -3 1h-5q-10 0 -15 -5
q-6 -5 -6 -13q0 -6 3 -9q3 -5 7 -6q-1 0 -5 -4q-2 -2 -2 -5l1 -4q1 -3 4 -3q-5 -2 -8 -5t-3 -8q0 -6 5 -11q7 -4 17 -4q13 0 21 5q7 4 7 14q0 7 -4 11q-4 3 -14 3h-9q-3 0 -4 1h-2q-2 2 -2 3q0 4 4 5h5q11 0 15 4q6 4 6 13q0 2 -1 3v2q-1 1 -2 4zM763 388h12v34q0 19 -19 19
q-2 0 -10 -2q-4 -1 -7 -6l-2 7h-9v-52h12v26q0 18 13 18q5 0 8 -3q2 -2 2 -9v-32zM655 388v52h-12v-52h12zM683 431q1 3 7 3t7 -3q3 -3 3 -8q0 -10 -10 -10q-1 0 -7 2q-8 8 0 16zM569 419h-24q0 7 4 10q5 6 12.5 3t7.5 -13zM229 414q0 9 4 13q3 5 10 5q13 0 13 -18t-13 -18
q-14 0 -14 18zM494 396q-6 0 -9 4q-3 5 -3 14t3 13q3 5 9 5q7 0 10 -4q4 -4 4 -14v-2q0 -9 -4 -12q-3 -4 -10 -4zM388 395q-4 0 -6 2t-2 6t3 7q8 2 12 2l6 1v-5q0 -6 -3 -9q-4 -4 -10 -4zM676 379q0 5 2 7q6 2 8 2h8q7 0 9 -2q3 -2 3 -5q0 -4 -5 -6q-5 -3 -13 -3q-3 0 -9 2
q-3 2 -3 5zM664 278h1l2 -7h8v74h-11v-19v-4q1 -3 1 -5q-6 7 -16 7t-16 -7q-13 -20 0 -40q6 -7 16 -7t15 8zM155 271v60h21v9h-52v-9h20v-60h11zM401 271v29h26v9h-26v22h28v9h-39v-69h11zM179 324l21 -53l-2 -5q-3 -9 -11 -9h-6v-8q2 -1 7 -1q15 0 21 16l22 60h-12
q-3 -10 -6 -18.5t-4.5 -12t-1.5 -5.5q-1 -1 -1 -6h-1q0 6 -3 12l-11 30h-12zM268 270q8 0 15 7q6 7 6 20q0 14 -6 20q-4 7 -15 7t-16 -8l-2 8h-9v-76h11v29q6 -7 16 -7zM327 270q7 0 9 1q5 0 8 3v9q-4 -3 -8 -3q-2 -1 -9 -1t-11 4q-4 5 -4 12h35v6q0 23 -22 23
q-16 0 -22.5 -17t4.5 -30q7 -7 20 -7zM482 317q-6 7 -18 7t-18 -7q-7 -6 -7 -20q0 -8 3 -14q4 -6 9 -10q6 -3 13 -3q16 -3 23 16t-5 31zM541 271h8v53h-11v-27q0 -9 -3 -14q-4 -4 -10 -4q-11 0 -11 12v33h-11v-35q0 -19 19 -19q2 0 10 2l7 6zM602 271h11v34q0 19 -18 19
q-6 0 -10 -2t-7 -5l-2 7h-9v-53h11v26q0 9 4 14q3 4 10 4q5 0 8 -3q2 -6 2 -9v-32zM724 314l1 10h-5q-10 0 -16 -10l-2 10h-9v-53h11v27q0 7 5 12q3 4 10 4h5zM729 324l21 -53l-2 -5q-3 -9 -11 -9h-6v-8q2 -1 7 -1q15 0 21 16l22 60h-12q-3 -10 -6 -18.5t-4.5 -12t-1.5 -5.5
q-1 -1 -1 -6h-1q0 6 -3 12l-11 30h-12zM325 316q5 0 8 -3q3 -5 3 -10h-24q1 2 2.5 5.5t1.5 4.5q3 3 9 3zM265 315q6 0 9 -4q3 -5 3 -14t-3 -13q-3 -5 -9 -5q-7 0 -10 5q-3 3 -3 13v2q0 9 3 12q3 4 10 4zM451 297q0 9 3 14q3 4 10 4q13 0 13 -18t-13 -18t-13 18zM652 279
q-9 0 -12.5 11t2.5 21q4 4 9 4q7 0 11 -4q3 -5 3 -14v-1q0 -8 -3 -13q-4 -4 -10 -4z" />
    <glyph glyph-name="u1F603" unicode="&#x1f603;" horiz-adv-x="860" 
d="M426 7q-190 0 -279 90t-89 285t89 285t279 90q195 0 285.5 -90t90.5 -285t-90.5 -285t-285.5 -90zM426 54q169 0 249.5 80.5t80.5 247.5t-80.5 247.5t-249.5 80.5q-163 0 -242.5 -80.5t-79.5 -247.5t79.5 -247.5t242.5 -80.5zM334 410q-15 -15 -50 -15t-50 15
q-15 16 -15 51t15 50q15 16 50 16t50 -16q16 -15 16 -50t-16 -51zM558 395q-35 0 -50.5 15.5t-15.5 50.5t15.5 50.5t50.5 15.5q34 0 49.5 -15.5t15.5 -50.5t-15.5 -50.5t-49.5 -15.5zM426 124q-110 0 -164.5 44t-51.5 126h421q3 -81 -48.5 -125t-156.5 -45z" />
    <glyph glyph-name="NULL" horiz-adv-x="0" 
 />
    <glyph glyph-name="CR" horiz-adv-x="333" 
 />
    <glyph glyph-name="Q.salt" horiz-adv-x="717" 
d="M465 3l139 -81q14 -6 6 -18l-22 -35q-5 -12 -17 -6l-222 132q-171 1 -229 79q-58 79 -58 299q0 175 35 260q30 66 89.5 92t171.5 28q138 0 208 -49q51 -40 69.5 -115.5t19.5 -215.5q0 -188 -40 -269q-39 -82 -150 -101zM147 525q-8 -59 -8 -152t8 -152q18 -118 98 -146
q40 -13 113 -13t113 13q81 28 99 146q8 59 8 152t-8 152q-18 119 -99 147q-44 14 -113 14t-113 -14q-81 -28 -98 -147z" />
    <glyph glyph-name="i.locl" horiz-adv-x="223" 
d="M112 720q49 0 49 -49q0 -51 -49 -51q-51 0 -51 51q0 49 51 49zM88 541h47q13 0 13 -13v-515q0 -13 -13 -13h-47q-13 0 -13 13v515q0 13 13 13z" />
    <glyph glyph-name="g.salt" horiz-adv-x="561" 
d="M488 562l29 -29q11 -7 0 -18l-36 -37q21 -39 21 -132q0 -122 -43 -161q-42 -39 -180 -39q-71 0 -116 9l-9 -23q-14 -36 -4 -47q10 -10 67 -15l190 -16q64 -6 80 -46q15 -31 15 -76v-6q0 -74 -44 -100t-152 -26q-156 0 -220 8q-13 1 -13 12v31q0 13 13 13h221
q72 0 97.5 12.5t25.5 49.5v7q0 28 -11.5 42t-43.5 17l-207 17q-45 4 -68.5 22t-23 42.5t9.5 51.5l23 53q-29 21 -40.5 59t-11.5 109q0 122 42 161q43 39 180 39q109 0 153 -22l38 38q10 10 18 0zM156 237q28 -27 123 -27t123 27t28 109t-28 109t-123 27t-123 -27
q-27 -27 -27 -109t27 -109z" />
    </font>
</defs>
</svg>
